4.08GB / Только Бог простит / Only God Forgives (2013) BDRip [720p]

рейтинг из 5
  • Добавил: zlidny
  • Дата: 24/09/13, 18:57:47
  • Просмотры: 583
  • Отзывы: 0
?????
Название игры:
Год выхода игры:
Жанр игры: Драмы, Запрет правообладателей

Запрет правообладателей

 

 

Год выпуска: 2013
Производство: Франция, Таиланд, США, Швеция
Жанр: Триллер, Драма, Криминал
Перевод: Двухголосый закадровый, любительский (HamsterStudio)
Внимание! Присутствует ненормативная лексика.
Субтитры: Отсутствуют


Дата мировой премьеры: 22 мая 2013 (Франция)
Дата российской премьеры: 17 октября 2013, «Top Film Distribution»


Режиссер: Николас Виндинг Рефн


Продюсер: Лене Берглум, Сидони Дюма, Винсент Мэрэвэл


Актеры: Райан Гослинг, Кристин Скотт Томас, Витхая Пансрингарм, Гордон Браун, Ейяинг Рхатха Пхонгам, Том Бёрк, Сахайак Бунсанакит, Питчават Петчаяхон, Чарли Рюдпоканон, Ковит Ваттанакуль ...


Описание фильма:
Джулиан, бежавший от американского правосудия, руководит в Бангкоке клубом тайского бокса, который служит ему прикрытием для торговли наркотиками. Его мать, глава крупной преступной организации, приезжает из США, чтобы забрать тело своего любимого сына Билли: брата Джулиана только что убили за зверскую расправу над молодой проституткой. Охваченная яростью и жаждой мести мать требует, чтобы Джулиан нашел и покарал убийц. Молодому человеку придется столкнуться с Чангом — странным полицейским на пенсии, которого обожают его коллеги.


pic pic pic

Продолжительность: 01:29:33
Качество видео: BDRip 720p [TiELK]

Видеокодек: MPEG-4 AVC/H.264
Битрейт видео: ~ 4443 Кбит/сек
Размер кадра: 1280 x 692 (1.850) at 23.976 fps : 0.463 Bits/Pixel
Аудио #1: AC3 448 Кбит/сек (6ch), 48,0 КГц, 16 бит [Русский, DVO]
Аудио #2: DTS 1509 Кбит/сек (6ch), 48,0 КГц, 24 бит [Английский]
Релиз: pic

Трейлер / Ролик
Награды
pic
 
Знаете ли вы, что...
• Это второй фильм Николаса Виндинга Рефна, который посвящен Алехандро Ходоровскому (первый — «Драйв» (2011)).
• Американцев играют британские актеры.
• Первоначально на главную роль взяли Люка Эванса, но он покинул проект из-за несогласованности расписаний съемок с фильмом «Хоббит: Неожиданное путешествие» (2012). В итоге роль досталась Райану Гослингу.
• Главный герой первоначально был британцем, но после изменения сценария стал американцем.
• Это третий фильм Николаса Виндинга Рефна с актером Гордоном Брауном.
• Николас Виндинг Рефн рассказал, что персонаж «Одноглазый» из фильма «Вальгалла: Сага о викинге» (2009) может появиться в этом фильме в новой реинкарнации.
• Николас Виндинг Рефн признался, что вдохновлялся работами Гаспара Ноэ, когда снимал кино. Последний был замечен на съемочной площадке в Бангкоке. В конечных титрах ему выразили особую благодарность.
• Сцены снимали в хронологическом порядке. Каждый день после съемок их монтировали.
• Идея картины возникла у режиссера, когда его жена была беременна второй дочерью. Он чувствовал внутри себя гнев и хотел выплеснуть его наружу. Так он «спроецировал» свои переживания на образ решительного героя, готового вступить в борьбу с Богом.
 
MediaInfo:
Код:

Уникальный идентификатор                 : 187590585497494019239483174852002885853 (0x8D20A1F16246366EAD602333EC44B0DD)
Полное имя                               : E:\Только Бог простит  Only God Forgives 2013 BDRip\Only.God.Forgives.2013.DVO.BDRip.720p.NNM-CLUB.mkv
Формат                                   : Matroska
Версия формата                           : Version 2
Размер файла                             : 4,08 Гбайт
Продолжительность                        : 1 ч. 29 м.
Общий поток                              : 6530 Кбит/сек
Название фильма                          : Only.God.Forgives.2013.720p.BluRay.DTS.x264-TiELK
Дата кодирования                         : UTC 2013-09-24 07:18:35
Программа кодирования                    : mkvmerge v2.9.9 ('Tutu') built on Nov 25 2009 21:13:32
Библиотека кодирования                   : libebml v0.7.9 + libmatroska v0.8.1

Видео
Идентификатор                            : 1
Формат                                   : AVC
Формат/Информация                        : Advanced Video Codec
Профиль формата                          : High@L4.1
Параметр CABAC формата                   : Да
Параметр ReFrames формата                : 9 кадров
Идентификатор кодека                     : V_MPEG4/ISO/AVC
Продолжительность                        : 1 ч. 29 м.
Битрейт                                  : 4443 Кбит/сек
Ширина                                   : 1280 пикселей
Высота                                   : 692 пикселя
Соотношение сторон                       : 1,85:1
Режим частоты кадров                     : Постоянный
Частота кадров                           : 23,976 кадра/сек
Цветовое пространство                    : YUV
Субдискретизация насыщенности            : 4:2:0
Битовая глубина                          : 8 бит
Тип развёртки                            : Прогрессивная
Бит/(Пиксели*Кадры)                      : 0.209
Размер потока                            : 2,78 Гбайт (68%)
Заголовок                                : -=Release for NNM-CLUB.RU=-
Библиотека кодирования                   : x264 core 138 r2358 9e941d1
Настройки программы                      : cabac=1 / ref=9 / deblock=1:-3:-3 / analyse=0x3:0x133 / me=umh / subme=10 / psy=1 / psy_rd=1.00:0.00 / mixed_ref=1 / me_range=24 / chroma_me=1 / trellis=2 / 8x8dct=1 / cqm=0 / deadzone=21,11 / fast_pskip=1 / chroma_qp_offset=-2 / threads=12 / lookahead_threads=2 / sliced_threads=0 / nr=0 / decimate=1 / interlaced=0 / bluray_compat=0 / constrained_intra=0 / bframes=8 / b_pyramid=2 / b_adapt=2 / b_bias=0 / direct=3 / weightb=1 / open_gop=0 / weightp=2 / keyint=240 / keyint_min=23 / scenecut=40 / intra_refresh=0 / rc_lookahead=50 / rc=crf / mbtree=0 / crf=17.5 / qcomp=0.60 / qpmin=0 / qpmax=69 / qpstep=4 / vbv_maxrate=50000 / vbv_bufsize=50000 / crf_max=0.0 / nal_hrd=none / ip_ratio=1.40 / pb_ratio=1.30 / aq=1:1.00
Язык                                     : English
Default                                  : Нет
Forced                                   : Нет

Аудио #1
Идентификатор                            : 2
Формат                                   : AC-3
Формат/Информация                        : Audio Coding 3
Расширение режима                        : CM (complete main)
Параметр Endianness формата              : Big
Идентификатор кодека                     : A_AC3
Продолжительность                        : 1 ч. 29 м.
Вид битрейта                             : Постоянный
Битрейт                                  : 448 Кбит/сек
Каналы                                   : 6 каналов
Расположение каналов                     : Front: L C R, Side: L R, LFE
Частота                                  : 48,0 КГц
Битовая глубина                          : 16 бит
Метод сжатия                             : С потерями
Размер потока                            : 287 Мбайт (7%)
Заголовок                                : AC3.448.Kbps (6ch) Russian (DVO HamsterStudio)
Язык                                     : Russian
Default                                  : Да
Forced                                   : Нет

Аудио #2
Идентификатор                            : 3
Формат                                   : DTS
Формат/Информация                        : Digital Theater Systems
Режим                                    : 16
Параметр Endianness формата              : Big
Идентификатор кодека                     : A_DTS
Продолжительность                        : 1 ч. 29 м.
Вид битрейта                             : Постоянный
Битрейт                                  : 1509 Кбит/сек
Каналы                                   : 6 каналов
Расположение каналов                     : Front: L C R, Side: L R, LFE
Частота                                  : 48,0 КГц
Битовая глубина                          : 16 бит
Метод сжатия                             : С потерями
Задержка видео                           : 11 мс.
Размер потока                            : 967 Мбайт (23%)
Заголовок                                : DTS.1509.Kbps (6ch) English
Язык                                     : English
Default                                  : Нет
Forced                                   : Нет

 
 

Скриншоты:

pic

pic pic pic pic pic
pic pic pic pic pic


Статистика торрента
Раздают: 352 Качают: 20 Размер: 4.08GB Скачали: 26
Имя файла:
Похожие торренты
Отзывы пользователей
Добавить отзыв