2.27GB / Опасная иллюзия / The Necessary Death of Charlie Countryman (Фредрик Бонд) [2013, триллер, криминал, боевик, драма, мелодрама, коме

рейтинг из 5
  • Добавил: zlidny
  • Дата: 14/10/14, 20:31:05
  • Просмотры: 374
  • Отзывы: 0
?????
Название игры:
Год выхода игры:
Жанр игры: Триллеры, Криминал, Драмы, Боевики, Запрет правообладателей

Запрет правообладателей

 

Перевод: Профессиональный (полное дублирование) лицензия, субтитры: русские, английские
Формат: BDRip-AVC, MKV, H.264, AC3
Страна: США, Румыния
Режиссер: Фредрик Бонд
Жанр: триллер, криминал, боевик, драма, мелодрама, комедия
Продолжительность: 01:43:36
Год выпуска: 2013

В ролях: Шайа ЛаБаф, Эван Рэйчел Вуд, Мадс Миккельсен, Тиль Швайгер, Руперт Гринт, Джеймс Бакли, Ион Карамитру, Винсент Д’Онофрио, Мелисса Лео, Джон Хёрт

Описание: Чарли Кантримен живет в США, спасаясь с помощью галлюциногенных веществ от скучной работы и тоски ничем не примечательного существования. Во время очередного наркотического трипа Чарли видит свою покойную мать, которая настоятельно рекомендует сыну съездить в Бухарест. Он не смеет ослушаться маму — и там герой фильма знакомится с девушкой своей мечты, а заодно — с местными криминальными порядками, из-за чего рискует в скором времени расстаться с жизнью.



Видео: 1024x576 (16:9), 23.976 fps, AVC (H.264), High@L4.1 ~2246 kbps, 0.159 bit/pixel
Аудио #1: Русский: 48 kHz, AC3 Dolby Digital, 3/2 (L,C,R,l,r) + LFE ch, ~448 kbps [Профессиональный (полное дублирование)]
Аудио #2: Английский: 48 kHz, AC3 Dolby Digital, 3/2 (L,C,R,l,r) + LFE ch, ~448 kbps [Оригинал]

Отчет MediaInfo
Format : Matroska
Format version : Version 2
File size : 2.27 GiB
Duration : 1h 43mn
Overall bit rate : 3 143 Kbps
Movie name : -=MediaClub - Odessit=-
Encoded date : UTC 2014-10-13 19:35:12
Writing application : mkvmerge v5.8.0 ('No Sleep / Pillow') built on Sep 2 2012 15:37:04
Writing library : libebml v1.2.3 + libmatroska v1.3.0

Video
ID : 1
Format : AVC
Format/Info : Advanced Video Codec
Format profile : High@L4.1
Format settings, CABAC : Yes
Format settings, ReFrames : 10 frames
Codec ID : V_MPEG4/ISO/AVC
Duration : 1h 43mn
Bit rate : 2 246 Kbps
Width : 1 024 pixels
Height : 576 pixels
Display aspect ratio : 16:9
Frame rate : 23.976 fps
Color space : YUV
Chroma subsampling : 4:2:0
Bit depth : 8 bits
Scan type : Progressive
Bits/(Pixel*Frame) : 0.159
Stream size : 1.58 GiB (70%)
Writing library : x264 core 130 r2273 b3065e6
Encoding settings : cabac=1 / ref=10 / deblock=1:-2:-2 / analyse=0x3:0x133 / me=umh / subme=11 / psy=1 / psy_rd=1.00:0.20 / mixed_ref=1 / me_range=64 / chroma_me=1 / trellis=2 / 8x8dct=1 / cqm=0 / deadzone=21,11 / fast_pskip=0 / chroma_qp_offset=-3 / threads=6 / lookahead_threads=1 / sliced_threads=0 / nr=0 / decimate=0 / interlaced=0 / bluray_compat=0 / constrained_intra=0 / bframes=9 / b_pyramid=2 / b_adapt=2 / b_bias=0 / direct=3 / weightb=1 / open_gop=0 / weightp=2 / keyint=240 / keyint_min=23 / scenecut=40 / intra_refresh=0 / rc=2pass / mbtree=0 / bitrate=2246 / ratetol=1.0 / qcomp=0.60 / qpmin=0 / qpmax=69 / qpstep=4 / cplxblur=20.0 / qblur=0.5 / ip_ratio=1.40 / pb_ratio=1.30 / aq=1:1.00
Language : English

Audio #1
ID : 2
Format : AC-3
Format/Info : Audio Coding 3
Mode extension : CM (complete main)
Codec ID : A_AC3
Duration : 1h 43mn
Bit rate mode : Constant
Bit rate : 448 Kbps
Channel(s) : 6 channels
Channel positions : Front: L C R, Side: L R, LFE
Sampling rate : 48.0 KHz
Bit depth : 16 bits
Compression mode : Lossy
Stream size : 332 MiB (14%)
Language : Russian

Audio #2
ID : 3
Format : AC-3
Format/Info : Audio Coding 3
Mode extension : CM (complete main)
Codec ID : A_AC3
Duration : 1h 43mn
Bit rate mode : Constant
Bit rate : 448 Kbps
Channel(s) : 6 channels
Channel positions : Front: L C R, Side: L R, LFE
Sampling rate : 48.0 KHz
Bit depth : 16 bits
Compression mode : Lossy
Stream size : 332 MiB (14%)
Language : English

Text #1
ID : 4
Format : UTF-8
Codec ID : S_TEXT/UTF8
Codec ID/Info : UTF-8 Plain Text
Language : Russian

Text #2
ID : 5
Format : UTF-8
Codec ID : S_TEXT/UTF8
Codec ID/Info : UTF-8 Plain Text
Language : English

Menu
00:00:00.000 : en:1
00:05:52.000 : en:2
00:10:08.000 : en:3
00:17:16.000 : en:4
00:22:42.000 : en:5
00:29:29.000 : en:6
00:37:01.000 : en:7
00:42:56.000 : en:8
00:51:35.000 : en:9
00:55:28.000 : en:10
01:02:17.000 : en:11
01:09:14.000 : en:12
01:16:23.000 : en:13
01:23:03.000 : en:14
01:28:24.000 : en:15
01:33:16.000 : en:16

Статистика торрента
Раздают: 129 Качают: 186 Размер: 2.27GB Скачали: 2
Имя файла:
Похожие торренты
Отзывы пользователей
Добавить отзыв