1.46GB / Лига мечты / United Passions (2014) WEB-DLRip [Line]

рейтинг из 5
  • Добавил: zlidny
  • Дата: 12/07/14, 11:31:11
  • Просмотры: 320
  • Отзывы: 0
?????
Название игры:
Год выхода игры:
Жанр игры: Исторические, Драмы, Запрет правообладателей

Запрет правообладателей

 

Год выпуска: 2014
Производство: Франция, Leuviah Films, Thelma Films
Жанр: Драма, История, Спорт
Перевод: Дублированный (Чистый звук)
Субтитры: Отсутствуют

Дата мировой премьеры: 18 мая 2014
Дата российской премьеры: 3 июля 2014, «Экспонента»

Режиссер: Фредерик Обуртин
Продюсер: Кристин Гозлан
Актеры: Тим Рот, Сэм Нилл, Фишер Стивенс, Томас Кречман, Жерар Депардьё, Джемайма Уэст, Джейсон Бэрри, Мартин Джарвис, Энтони Хиггинс, Ричард Диллэйн

Описание фильма:
В начале 20-го века несколько энтузиастов из разных европейских стран решили совместно реализовать амбициозную мечту — создать футбольную организацию, которая объединила бы весь мир! Они назвали ее Международная федерация по футболу или коротко — FIFA… В основе фильма лежит интригующая и несколько скандальная история, основанная на реальных событиях, о возникновении Кубка мира по футболу и трех одержимых людях, способствовавших его проведению. Жюль Риме, Авеланж Жоао и ныне действующий президент FIFA Йозеф «Зепп» Блаттер — три столь разных человека жили в разное время в разных странах. Они наживали врагов, шли на компромиссы, становились жертвами предательства — но они сделали все, чтобы Чемпионат мира по футболу стал реальностью. Эта более чем вековая история прославляет игру, которая, несмотря ни на что, стала не только Всемирным Спортом, но и олицетворением Надежды, Силы духа и Единства.

pic pic pic

Возраст: 12+

Продолжительность: 01:49:40
Качество видео: WEB-DLRip

Видеокодек: XviD
Битрейт видео: 1703 kb/s
Размер кадра: 720x304
Аудиокодек: AC3 2.0
Битрейт аудио: 192 kb/s

MI
Код:
Общее
Полное имя                               : D:\Раздачи\Лига.мечты.2014.WEB-DLRip.NNM-CLUB.avi
Формат                                   : AVI
Формат/Информация                        : Audio Video Interleave
Размер файла                             : 1,46 Гбайт
Продолжительность                        : 1 ч. 49 м.
Общий поток                              : 1902 Кбит/сек
Программа кодирования                    : VirtualDubMod 1.5.10.2 (build 2540/release)
Библиотека кодирования                   : VirtualDubMod build 2540/release

Видео
Идентификатор                            : 0
Формат                                   : MPEG-4 Visual
Профиль формата                          : Advanced Simple@L5
Параметр BVOP формата                    : 2
Параметр QPel формата                    : Нет
Параметр GMC формата                     : Без точки перехода
Параметр матрицы формата                 : Выборочная
Идентификатор кодека                     : XVID
Идентификатор кодека/Подсказка           : XviD
Продолжительность                        : 1 ч. 49 м.
Битрейт                                  : 1703 Кбит/сек
Ширина                                   : 720 пикселей
Высота                                   : 304 пикселя
Соотношение сторон                       : 2,35:1
Частота кадров                           : 24,000 кадра/сек
Цветовое пространство                    : YUV
Субдискретизация насыщенности            : 4:2:0
Битовая глубина                          : 8 бит
Тип развёртки                            : Прогрессивная
Метод сжатия                             : С потерями
Бит/(Пиксели*Кадры)                      : 0.324
Размер потока                            : 1,30 Гбайт (90%)
Библиотека кодирования                   : XviD 1.2.1 (UTC 2008-12-04)

Аудио
Идентификатор                            : 1
Формат                                   : AC-3
Формат/Информация                        : Audio Coding 3
Расширение режима                        : CM (complete main)
Параметр Endianness формата              : Big
Идентификатор кодека                     : 2000
Продолжительность                        : 1 ч. 48 м.
Вид битрейта                             : Постоянный
Битрейт                                  : 192 Кбит/сек
Каналы                                   : 2 канала
Расположение каналов                     : Front: L R
Частота                                  : 48,0 КГц
Битовая глубина                          : 16 бит
Метод сжатия                             : С потерями
Размер потока                            : 149 Мбайт (10%)
Выравнивание                             : Разделение по промежуткам
Продолжительность промежутка             : 42  мс. (1,01 видеокадр)
Время предзагрузки промежутка            : 500  мс.
 
Скриншоты:
pic pic pic pic pic

Статистика торрента
Раздают: 136 Качают: 109 Размер: 1.46GB Скачали: 12
Имя файла:
Похожие торренты
Отзывы пользователей
Добавить отзыв