1.56GB / Поглощенная / Devoured (2012) BDRip-AVC от MediaClub | P, L2

Категория: игры для pc » Racing
рейтинг из 5
  • Добавил: zlidny
  • Дата: 08/08/14, 10:33:31
  • Просмотры: 191
  • Отзывы: 0
?????
Название игры:
Год выхода игры:
Жанр игры: Racing

Название: Поглощенная
Оригинальное название: Devoured
Год выхода: 2012
Жанр: Ужасы, триллер, драма
Режиссер: Грег Олливер
В ролях: Марта Миланс, Кара Джексон, Бруно Джойелло, Тайлер Холлингер, Луис Харрис, Сел Рендино, Дэвид Конли, Джим О'Хара, Ричард Алеман, Эрик Ломмель, Диксон Гутьерез, Реннел Турнер, Джейми Карилло, Энни Ли Моффетт, Эми Лэндон, Рич Кэмпбелл, Тони Коста, Рейвен Чичестер, Карим Рауль

О фильме:
В попытке заработать своему сыну на операцию она переехала в Нью-Йорк и устроилась на работу в французский ресторан в качестве обыкновенной подсобной рабочей. Каждый день, возвращаясь с работы, она откладывает все заработанные ей деньги отдельно, ссыпая в отдельную банку даже последние центы. Кажется, вот-вот все должно стать хорошо, она уже почти собрала требуемую сумму денег. Однако, сама она уже находится на грани полного истощения…

Благодарность
Огромная благодарность Media-Art-Club за созданный постер к раздаче!
MediaInfo
Общее
Уникальный идентификатор : 199933343836080714783134545378374733025 (0x9669C2E9A3685879AD528090A14E4CE1)
Полное имя : G:Готово!!!Pogloschennaya.2012.x264.BDRip-AVC-MediaClub.mkv
Формат : Matroska
Версия формата : Version 2
Размер файла : 1,56 Гбайт
Продолжительность : 1 ч. 29 м.
Общий поток : 2498 Кбит/сек
Название фильма : Pogloschennaya (2012) BDRip-AVC =MediaClub=-[Викс]-
Дата кодирования : UTC 2014-08-07 21:51:58
Программа кодирования : mkvmerge v5.8.0 ('No Sleep / Pillow') built on Sep 2 2012 15:37:04
Библиотека кодирования : libebml v1.2.3 + libmatroska v1.3.0

Видео
Идентификатор : 1
Формат : AVC
Формат/Информация : Advanced Video Codec
Профиль формата : High@L4.1
Параметр CABAC формата : Да
Параметр ReFrames формата : 8 кадров
Идентификатор кодека : V_MPEG4/ISO/AVC
Продолжительность : 1 ч. 29 м.
Битрейт : 1670 Кбит/сек
Ширина : 1024 пикселя
Высота : 576 пикселей
Соотношение сторон : 16:9
Режим частоты кадров : Постоянный
Частота кадров : 23,976 кадра/сек
Цветовое пространство : YUV
Субдискретизация насыщенности : 4:2:0
Битовая глубина : 8 бит
Тип развёртки : Прогрессивная
Бит/(Пиксели*Кадры) : 0.118
Размер потока : 1,01 Гбайт (65%)
Библиотека кодирования : x264 core 142 r2431 ac76440
Настройки программы : cabac=1 / ref=8 / deblock=1:-2:-2 / analyse=0x3:0x113 / me=umh / subme=11 / psy=1 / psy_rd=1.00:0.00 / mixed_ref=1 / me_range=48 / chroma_me=1 / trellis=2 / 8x8dct=1 / cqm=0 / deadzone=21,11 / fast_pskip=0 / chroma_qp_offset=-2 / threads=6 / lookahead_threads=1 / sliced_threads=0 / nr=0 / decimate=0 / interlaced=0 / bluray_compat=0 / constrained_intra=0 / bframes=8 / b_pyramid=2 / b_adapt=2 / b_bias=0 / direct=3 / weightb=1 / open_gop=0 / weightp=2 / keyint=240 / keyint_min=23 / scenecut=40 / intra_refresh=0 / rc_lookahead=40 / rc=2pass / mbtree=0 / bitrate=1670 / ratetol=1.0 / qcomp=0.60 / qpmin=0 / qpmax=69 / qpstep=4 / cplxblur=20.0 / qblur=0.5 / vbv_maxrate=50000 / vbv_bufsize=52500 / nal_hrd=none / filler=0 / ip_ratio=1.40 / pb_ratio=1.30 / aq=1:0.80
Язык : English
Default : Да
Forced : Нет

Аудио #1
Идентификатор : 2
Формат : AC-3
Формат/Информация : Audio Coding 3
Расширение режима : CM (complete main)
Параметр Endianness формата : Big
Идентификатор кодека : A_AC3
Продолжительность : 1 ч. 29 м.
Вид битрейта : Постоянный
Битрейт : 192 Кбит/сек
Каналы : 2 канала
Расположение каналов : Front: L R
Частота : 48,0 КГц
Битовая глубина : 16 бит
Метод сжатия : С потерями
Размер потока : 123 Мбайт (8%)
Заголовок : Prof.mnogogolosuj
Язык : Russian
Default : Да
Forced : Нет

Аудио #2
Идентификатор : 3
Формат : AC-3
Формат/Информация : Audio Coding 3
Расширение режима : CM (complete main)
Параметр Endianness формата : Big
Идентификатор кодека : A_AC3
Продолжительность : 1 ч. 29 м.
Вид битрейта : Постоянный
Битрейт : 192 Кбит/сек
Каналы : 2 канала
Расположение каналов : Front: L R
Частота : 48,0 КГц
Битовая глубина : 16 бит
Метод сжатия : С потерями
Размер потока : 123 Мбайт (8%)
Заголовок : LD (DeadSno & den904)
Язык : Russian
Default : Нет
Forced : Нет

Аудио #3
Идентификатор : 4
Формат : AC-3
Формат/Информация : Audio Coding 3
Расширение режима : CM (complete main)
Параметр Endianness формата : Big
Идентификатор кодека : A_AC3
Продолжительность : 1 ч. 29 м.
Вид битрейта : Постоянный
Битрейт : 448 Кбит/сек
Каналы : 6 каналов
Расположение каналов : Front: L C R, Side: L R, LFE
Частота : 48,0 КГц
Битовая глубина : 16 бит
Метод сжатия : С потерями
Размер потока : 286 Мбайт (18%)
Язык : English
Default : Нет
Forced : Нет

Меню
00:00:00.000 : :Chapter 01
00:06:59.961 : :Chapter 02
00:13:59.964 : :Chapter 03
00:20:59.967 : :Chapter 04
00:27:59.928 : :Chapter 05
00:34:59.931 : :Chapter 06
00:41:59.934 : :Chapter 07
00:48:59.895 : :Chapter 08
00:55:59.898 : :Chapter 09
01:02:59.942 : :Chapter 10
01:09:59.945 : :Chapter 11
01:16:59.906 : :Chapter 12
x264 log
x264 [info]: frame I:963   Avg QP:13.84  size: 67706
x264 [info]: frame P:26996 Avg QP:17.04  size: 18555
x264 [info]: frame B:100585 Avg QP:18.49  size:  5455




Официальный сайт

Страна: США
Студия: Secret Weapon Films
Продолжительность: 01:29:21
Перевод: Профессиональный многоголосый, любительский двухголосый (DeadSno & den904)

Файл
Кодек: x264
Качество: BDRip-AVC
Видео: MPEG-4 AVC, 1670 Кбит/с, 1024x576, 23.976 кадр/с
Звук:
Аудио #1: Русский (AC3, 2 ch, 192 Кбит/с) / Профессиональный многоголосый
Аудио #2: Русский (AC3, 2 ch, 192 Кбит/с) / Любительский двухголосый (DeadSno & den904)
Аудио #3: Английский (AC3, 6 ch, 448 Кбит/с)

Семпл
 

Скриншоты



Релиз от: Рип, работа с аудио - Викс


Статистика торрента
Раздают: 19 Качают: 44 Размер: 1.56GB Скачали: 17
Имя файла: 36753_-rutor.org-Pogl.torrent
Похожие торренты
Отзывы пользователей
Добавить отзыв