Солдаты Буффало / Buffalo Soldiers (2001) HDTVRip [H.264]

Категория: фильмы » Военные
рейтинг из 5
  • Добавил: zlidny
  • Дата: 19/12/16, 11:38:50
  • Просмотры: 78
  • Отзывы: 0
?????
Название игры:
Год выхода игры:
Жанр игры: Комедии, Военные

Производство: Великобритания, Германия

Жанр: Военный, Комедия, Драма



Режиссер: Грегор Джордан

Актеры: Хоакин Феникс, Эд Харрис, Скотт Гленн, Анна Пакуин, Элизабет МакГоверн, Майкл Пенья, Леон, Гэбриел Манн, Дин Стокуэлл, Брайан Дилейт



Описание:

1989, Германия. Соединение Западной и Восточной Германии и конец холодной войны на носу, но для армейского писаря Рэя Элвуда горячая схватка только начинается. Обаятельный мошенник Элвуд стоит на страже свободы во время дневной службы на американской военной базе под Штуттгартом, а во всё остающееся время занимается торговлей плохо лежащего армейского имущества.



pic pic

Возраст: 16+ (зрителям, достигшим 16 лет)

Рейтинг MPAA: R (лицам до 17 лет обязательно присутствие взрослого)



Продолжительность: 01:33:48

Качество видео: HDTVRip

Перевод: Дублированный, авторский М.Чадов

Субтитры: Русский, английский



Видео: AVC, 1140x484 (2.35:1), 25.000 fps, 2 546 Kbps (0.185 bit/pixel)

Аудио #1: AC-3, 48.0 KHz, 6 ch, 640 Kbps, CBR (Russian) - дубляж

Аудио #2: AC-3, 48.0 KHz, 6 ch, 384 Kbps, CBR (Russian) - авторский М.Чадов




скрытый текст


За видеоряд и перевод М.Чадова огромное спасибо Переулку Переводмана

 





Mediainfo:



 
Формат : Matroska
Версия формата : Version 2
Размер файла : 2,34 Гбайт
Продолжительность : 1 ч. 33 м.
Режим общего битрейта : Переменный
Общий поток : 3571 Кбит/сек
Название фильма : Релиз Переулка Переводмана
Дата кодирования : UTC 2016-12-17 22:50:50
Программа кодирования : mkvmerge v5.3.0 ('I could have danced' wink built on Feb 9 2012 10:38:07
Библиотека кодирования : libebml v1.2.3 + libmatroska v1.3.0
Attachments : poster (2).jpg

Видео
Идентификатор : 1
Формат : AVC
Формат/Информация : Advanced Video Codec
Профиль формата : High@L4.1
Параметр CABAC формата : Да
Параметр ReFrames формата : 14 кадров
Идентификатор кодека : V_MPEG4/ISO/AVC
Продолжительность : 1 ч. 33 м.
Вид битрейта : Переменный
Битрейт : 2546 Кбит/сек
Максимальный битрейт : 50,0 Мбит/сек
Ширина : 1140 пикселей
Высота : 484 пикселя
Соотношение сторон : 2,35:1
Режим частоты кадров : Постоянный
Частота кадров : 25,000 кадров/сек
Цветовое пространство : YUV
Субдискретизация насыщенности : 4:2:0
Битовая глубина : 8 бит
Тип развёртки : Прогрессивная
Бит/(Пиксели*Кадры) : 0.185
Размер потока : 1,62 Гбайт (69 wacko
Библиотека кодирования : x264 core 133 r2334 a3ac64b
Настройки программы : cabac=1 / ref=14 / deblock=1:-3:-3 / analyse=0x3:0x133 / me=umh / subme=10 / psy=1 / psy_rd=1.00:0.00 / mixed_ref=1 / me_range=32 / chroma_me=1 / trellis=2 / 8x8dct=1 / cqm=0 / deadzone=21,11 / fast_pskip=0 / chroma_qp_offset=-2 / threads=6 / lookahead_threads=1 / sliced_threads=0 / nr=0 / decimate=0 / interlaced=0 / bluray_compat=0 / constrained_intra=0 / bframes=16 / b_pyramid=2 / b_adapt=2 / b_bias=0 / direct=3 / weightb=1 / open_gop=0 / weightp=2 / keyint=250 / keyint_min=25 / scenecut=40 / intra_refresh=0 / rc_lookahead=60 / rc=2pass / mbtree=1 / bitrate=2546 / ratetol=1.0 / qcomp=0.60 / qpmin=10 / qpmax=51 / qpstep=4 / cplxblur=20.0 / qblur=0.5 / vbv_maxrate=50000 / vbv_bufsize=62500 / nal_hrd=vbr / ip_ratio=1.40 / aq=1:1.00
Язык : English
Default : Да
Forced : Нет

Аудио #1
Идентификатор : 2
Формат : AC-3
Формат/Информация : Audio Coding 3
Расширение режима : CM (complete main)
Параметр Endianness формата : Big
Идентификатор кодека : A_AC3
Продолжительность : 1 ч. 33 м.
Вид битрейта : Постоянный
Битрейт : 640 Кбит/сек
Каналы : 6 каналов
Расположение каналов : Front: L C R, Side: L R, LFE
Частота : 48,0 КГц
Частота кадров : 31,250 кадров/сек (1536 spf)
Битовая глубина : 16 бит
Метод сжатия : С потерями
Размер потока : 429 Мбайт (18 wacko
Заголовок : DUB Мосфильм-мастер
Язык : Russian
Default : Нет
Forced : Нет

Аудио #2
Идентификатор : 3
Формат : AC-3
Формат/Информация : Audio Coding 3
Расширение режима : CM (complete main)
Параметр Endianness формата : Big
Идентификатор кодека : A_AC3
Продолжительность : 1 ч. 33 м.
Вид битрейта : Постоянный
Битрейт : 384 Кбит/сек
Каналы : 6 каналов
Расположение каналов : Front: L C R, Side: L R, LFE
Частота : 48,0 КГц
Частота кадров : 31,250 кадров/сек (1536 spf)
Битовая глубина : 16 бит
Метод сжатия : С потерями
Размер потока : 258 Мбайт (11 wacko
Заголовок : VO М.Чадов
Язык : Russian
Default : Нет
Forced : Нет

Текст #1
Идентификатор : 4
Формат : UTF-8
Идентификатор кодека : S_TEXT/UTF8
Идентификатор кодека/Информация : UTF-8 Plain Text
Язык : Russian
Default : Нет
Forced : Нет

Текст #2
Идентификатор : 5
Формат : UTF-8
Идентификатор кодека : S_TEXT/UTF8
Идентификатор кодека/Информация : UTF-8 Plain Text
Язык : English
Default : Нет
Forced : Нет


 




Скриншоты:

pic pic pic pic







Скачал сам, помоги другим! Пиявки полезны только в медицине


Статистика торрента
Раздают: 362 Качают: 190 Размер: 2.34GB Скачали: 1
Имя файла: 41823_-NNMClub.to-Sol.torrent
Похожие торренты
Отзывы пользователей
Добавить отзыв