1.46GB / Небесный тихоход (1945) BDRip от New-Team | Цветная версия

Категория: фильмы » Военные
рейтинг из 5
  • Добавил: zlidny
  • Дата: 28/10/14, 20:05:57
  • Просмотры: 387
  • Отзывы: 0
?????
Название игры:
Год выхода игры:
Жанр игры: Комедии, Военные

Страна: СССР
Производство: Ленфильм

Жанр: комедия, военный
Год выпуска: 1945
Продолжительность: 01:23:28

Перевод: не требуется
Оригинальная аудиодорожка: русский
Cубтитры: нет

Режиссер: Семен Тимошенко

В ролях:
Николай Крючков, Василий Меркурьев, Василий Нещипленко, Алла Парфаньяк, Людмила Глазова, Тамара Алешина, Яков Гудкин, Фаина Раневская, Константин Скоробогатов, Семен Тимошенко...

Описание:
Три друга, летчики-офицеры, поклялись не любить до конца войны. Однако военная служба познакомила их с летчицами женской эскадрильи. И друзья один за другим начали сдавать свои позиции. После тяжелого ранения летчик Булочкин вынужден летать не на скоростном истребителе, а на «тихоходе» У-2. Привыкший к опасностям Булочкин с трудом привыкает к спокойной жизни в эскадрилье, где большинство летчиков — девушки. Но вскоре становится ясно, что на войне важны и «тихоходы»…






Исходник: BDRemux 1080p
Тип релиза: BDRip
Контейнер: AVI

Видео: 720x544 (4:3), 23,976 fps, XviD ~ 2039 kbps avg, 0.217 bit/pixel
Аудио: 48 kHz, Dolby AC3 5.1, 448 kbps

Раздача от:

MediaInfo

Общее
Полное имя : Nebesny.tihohod.1945.DVDRip_[New-team]_by_AVP_Studio.avi
Формат : AVI
Формат/Информация : Audio Video Interleave
Размер файла : 1,46 Гбайт
Продолжительность : 1 ч. 23 м.
Общий поток : 2496 Кбит/сек
Программа кодирования : VirtualDubModRus 1.5.10.2 (build 2542/release)
Библиотека кодирования : VirtualDubMod build 2542/release

Видео
Идентификатор : 0
Формат : MPEG-4 Visual
Профиль формата : Advanced Simple@L5
Параметр BVOP формата : 1
Параметр QPel формата : Нет
Параметр GMC формата : Без точки перехода
Параметр матрицы формата : Выборочная
Идентификатор кодека : XVID
Идентификатор кодека/Подсказка : XviD
Продолжительность : 1 ч. 23 м.
Битрейт : 2039 Кбит/сек
Ширина : 720 пикселей
Высота : 544 пикселя
Соотношение сторон : 4:3
Частота кадров : 23,976 кадра/сек
Цветовое пространство : YUV
Субдискретизация насыщенности : 4:2:0
Битовая глубина : 8 бит
Тип развёртки : Прогрессивная
Метод сжатия : С потерями
Бит/(Пиксели*Кадры) : 0.217
Размер потока : 1,19 Гбайт (82%)
Библиотека кодирования : XviD 73

Аудио
Идентификатор : 1
Формат : AC-3
Формат/Информация : Audio Coding 3
Расширение режима : CM (complete main)
Параметр Endianness формата : Big
Идентификатор кодека : 2000
Продолжительность : 1 ч. 23 м.
Вид битрейта : Постоянный
Битрейт : 448 Кбит/сек
Каналы : 6 каналов
Расположение каналов : Front: L C R, Side: L R, LFE
Частота : 48,0 КГц
Битовая глубина : 16 бит
Метод сжатия : С потерями
Размер потока : 267 Мбайт (18%)
Выравнивание : Разделение по промежуткам
Продолжительность промежутка : 42 мс. (1,00 видеокадр)
Время предзагрузки промежутка : 500 мс

 

Скриншоты



Статистика торрента
Раздают: 112 Качают: 17 Размер: 1.46GB Скачали: 17
Имя файла: 38993_-rutor.org-Nebe.torrent
Похожие торренты
Отзывы пользователей
Добавить отзыв