5.63GB / Дикие сердца / Our Wild Hearts (2013) HDTV 1080i

Категория: фильмы » Вестерны
рейтинг из 5
  • Добавил: zlidny
  • Дата: 14/08/14, 22:13:25
  • Просмотры: 312
  • Отзывы: 0
?????
Название игры:
Год выхода игры:
Жанр игры: Семейные, Вестерны

Название: Дикие сердца
Оригинальное название: Our Wild Hearts
Год выхода: 2013
Жанр: семейный, вестерн
Режиссер: Рик Шродер
В ролях: Элуиз Деджориа, Вероника Данн, Мартин Коув, Анджела Линдвэлл, Крис Дж. Келли, Карл Мергенталер, Клифф Поттс, Камбри Шродер, Холден Шродер, Люк Шродер

О фильме:
Уиллоу, пытающаяся найти себя в жизни девочка-подросток, одержима идеей найти своего отца, которого она никогда не видела. Она бросает свою праздную жизнь в Малибу и отправляется в горы Сьерра-Невада, где она неожиданно заявляется к местному ковбою Джеку, не подозревающему, что у него оказывается есть дети. На ранчо Уиллоу находит общий язык с диким и неподдающимся мустангом по кличке Браво. В то время как Джек хочет обуздать и приручить великолепного скакуна, Уиллоу уверена, что Браво должен быть свободной лошадью. Станет ли дикий жеребец, который свёл взрослую дочь и потерянного отца вместе, причиной очередного разрыва?




Страна: США
Продолжительность: 01:25:29
Перевод: Профессиональный (многоголосый закадровый)

Файл
Кодек: H.264
Качество: HDTV 1080i
Видео: 1920x1080 (16:9), 8926 Кбит/сек, 25.000 fps
Звук: MP-2, 48000 Hz, 192 Кбит/сек, 2 ch
Субтитры: нет

Семпл
 

MediaInfo

Видео
Идентификатор : 224 (0xE0)
Идентификатор меню : 1 (0x1)
Формат : AVC
Формат/Информация : Advanced Video Codec
Профиль формата : High@L4.1
Параметр CABAC формата : Да
Параметр ReFrames формата : 3 кадра
Идентификатор кодека : 27
Продолжительность : 1 ч. 25 м.
Вид битрейта : Постоянный
Битрейт : 8926 Кбит/сек
Ширина : 1920 пикселей
Высота : 1080 пикселей
Соотношение сторон : 16:9
Частота кадров : 25,000 кадров/сек
Стандарт вещания : PAL
Цветовое пространство : YUV
Субдискретизация насыщенности : 4:2:0
Битовая глубина : 8 бит
Тип развёртки : Чересстрочная
Порядок развёртки : Верхнее поле первое
Бит/(Пиксели*Кадры) : 0.172
Размер потока : 5,23 Гбайт (93%)
Основные цвета : BT.709
Характеристики трансфера : BT.709
Коэффициенты матрицы : BT.709
Аудио
Идентификатор : 192 (0xC0)
Идентификатор меню : 1 (0x1)
Формат : MPEG Audio
Версия формата : Version 1
Профиль формата : Layer 2
Идентификатор кодека : 3
Продолжительность : 1 ч. 25 м.
Вид битрейта : Постоянный
Битрейт : 192 Кбит/сек
Каналы : 2 канала
Частота : 48,0 КГц
Метод сжатия : С потерями
Задержка видео : 16 мс.
Размер потока : 117 Мбайт (2%)
Язык : Russian

 

Скриншоты

Статистика торрента
Раздают: 87 Качают: 33 Размер: 5.63GB Скачали: 19
Имя файла: 37006_-rutor.org-Diki.torrent
Похожие торренты
Отзывы пользователей
Добавить отзыв