1.08GB / Существо / Creature (Викрам Бхатт) [2014, ужасы, фантастика, WEBRip-AVC]

Категория: фильмы » Ужасы
рейтинг из 5
  • Добавил: zlidny
  • Дата: 20/10/14, 15:17:07
  • Просмотры: 285
  • Отзывы: 0
?????
Название игры:
Год выхода игры:
Жанр игры: Фантастика, Ужасы

Перевод: Любительский (двухголосый) [den904&DeadSno]

Cубтитры: отсутствуют

Формат: WEBRip-AVC, MKV, H.264, AC3

Страна: Индия

Режиссер: Викрам Бхатт

Жанр: ужасы, фантастика

Продолжительность: 02:17:41

Год выпуска: 2014

В ролях: Бипаша Басу, Имран Аббас, Апарна Баджпаи, Амит Тандон, Мукул Дев, Дипрадж Рана, Викрамджит Сингх

Описание: Согласно индийским преданиям, брахма-ракшасы – демоны-людоеды, проклятые самим богом Брахмой. Они были сокрушены богами и заточены в ловушки на долгие столетия. Но однажды, при строительстве дороги в Бхопале, рабочие допускают огромную ошибку и срубают священное дерево Баньян, тем самым открыв портал одному из демонов. Вернувшись в этот мир, он начинает пожирать жителей деревни, а также гостей, прибывших на открытие нового отеля. Владелица отеля, Ахана начинает смертельную битву с демоном, где может выжить лишь один….

______________

Видео: 1280х544 (2.35:1), 29.970 fps, AVC (H.264), High@L4.1 ~ 900 Кbps, 0.043 bit/pixel
Аудио: 48 kHz, AC3 Dolby Digital, 3/2 (L,C,R,l,r) + LFE ch, ~224 kbps
 

MediaInfo
General
Unique I: 230465934180765865554438896427325084948
Complete name : E:\Sushestvo.2014.WEBRip-AVC_Klayd X.mkv
Format : Matroska
File size : 1.08 GiB
Duration : 2h 17mn
Overall bit rate : 1 126 Kbps
Movie name : Creature (2014) - 720p - DVDRip - Hindi - x264 - AC3 - 5.1 - ESubs - Mafiaking - TeamTNT
Encoded date : UTC 2014-10-17 16:35:44
Writing application : mkvmerge v7.2.0 ('On Every Street') 64bit built on Sep 13 2014 15:52:10
Writing library : libebml v1.3.0 + libmatroska v1.4.1

Video
ID : 1
Format : AVC
Format/Info : Advanced Video Codec
Format profile : High@L4.1
Format settings, CABAC : Yes
Format settings, ReFrames : 4 frames
Codec ID : V_MPEG4/ISO/AVC
Duration : 2h 17mn
Bit rate : 900 Kbps
Width : 1 280 pixels
Height : 544 pixels
Display aspect ratio : 2.35:1
Frame rate : 29.970 fps
Color space : YUV
Chroma subsampling : 4:2:0
Bit depth : 8 bits
Scan type : Progressive
Bits/(Pixel*Frame) : 0.043
Stream size : 867 MiB (78%)
Title : Mafiaking
Writing library : x264 core 142 r2431 ac76440
Encoding settings : cabac=1 / ref=3 / deblock=1:0:0 / analyse=0x3:0x113 / me=hex / subme=7 / psy=1 / psy_rd=1.00:0.00 / mixed_ref=1 / me_range=16 / chroma_me=1 / trellis=1 / 8x8dct=1 / cqm=0 / deadzone=21,11 / fast_pskip=1 / chroma_qp_offset=-2 / threads=12 / lookahead_threads=2 / sliced_threads=0 / nr=0 / decimate=1 / interlaced=0 / bluray_compat=0 / constrained_intra=0 / bframes=3 / b_pyramid=2 / b_adapt=1 / b_bias=0 / direct=1 / weightb=1 / open_gop=0 / weightp=2 / keyint=300 / keyint_min=29 / scenecut=40 / intra_refresh=0 / rc_lookahead=40 / rc=2pass / mbtree=1 / bitrate=900 / ratetol=1.0 / qcomp=0.60 / qpmin=0 / qpmax=69 / qpstep=4 / cplxblur=20.0 / qblur=0.5 / vbv_maxrate=62500 / vbv_bufsize=78125 / nal_hrd=none / filler=0 / ip_ratio=1.40 / aq=1:1.00
Language : Hindi

Audio
ID : 3
Format : AC-3
Format/Info : Audio Coding 3
Mode extension : CM (complete main)
Codec ID : A_AC3
Duration : 2h 17mn
Bit rate mode : Constant
Bit rate : 224 Kbps
Channel(s) : 6 channels
Channel positions : Front: L C R, Side: L R, LFE
Sampling rate : 48.0 KHz
Bit depth : 16 bits
Compression mode : Lossy
Stream size : 221 MiB (20%)

Статистика торрента
Раздают: 84 Качают: 198 Размер: 1.08GB Скачали: 18
Имя файла: 38695_Sushestvo.2014..torrent
Похожие торренты
Отзывы пользователей
Добавить отзыв