Подношение / The Offering (Келвин Тонг) [2016, ужасы, триллер, драма, детектив, WEB-DLRip]

Категория: фильмы » Триллеры
рейтинг из 5
  • Добавил: zlidny
  • Дата: 13/12/16, 15:10:31
  • Просмотры: 33
  • Отзывы: 0
?????
Название игры:
Год выхода игры:
Жанр игры: Ужасы, Триллеры

Год выпуска: 2016 Страна: Сингапур, США Жанр: ужасы, триллер, драма, детектив Продолжительность: 01:35:33 Перевод: Любительский (многоголосый) Субтитры: Отсутствуют





В ролях: Мэттью Сеттл, Элизабет Райс, Памелин Чи, Элизабет Лазан, Джейми Онг, Адина Херц, Кхенг Хуа Тан, Адриан Пэнг, Колин Боргонон Режиссёр: Келвин Тонг





Описание: Когда Джейми узнает, что её сестра умерла при загадочных обстоятельствах, она уезжает в Сингапур в поисках истины. По прибытии она обнаруживает несколько смертельных случаев, схожих с тем, что случилось с её сестрой.





Качество: WEB-DLRip Формат: MKV Видео кодек: XviD Аудио кодек: AC3 Видео: 720x304, 23,976 fps, 1629 Kbps Аудио: 384 Kbps, 6 ch, 48,0 KHz





Сэмпл






Скриншоты




 






MediaInfo


Общее Уникальный идентификатор : 216612290896074205484569188926390135679 (0xA2F6027E0D69480181492C0CE0C1EB7F) Полное имя : D:\МОИ РАЗДАЧИ.2\videoF\The Offering (2016) WEB-DLRip.mkv Формат : Matroska Версия формата : Version 4 / Version 2 Размер файла : 1,37 Гбайт Продолжительность : 1 ч. 35 м. Общий поток : 2053 Кбит/сек Дата кодирования : UTC 2016-06-09 09:58:00 Программа кодирования : mkvmerge v6.2.0 ('Promised Land' wink built on Apr 28 2013 12:22:01 Библиотека кодирования : libebml v1.3.0 + libmatroska v1.4.0



Видео Идентификатор : 2 Формат : MPEG-4 Visual Профиль формата : Advanced Simple@L5 Параметр BVOP формата : 2 Параметр QPel формата : Нет Параметр GMC формата : Без точки перехода Параметр матрицы формата : Default (H.263) Режим смешивания : Сжатый битовый поток Идентификатор кодека : V_MS/VFW/FOURCC / XVID Идентификатор кодека/Подсказка : XviD Продолжительность : 1 ч. 35 м. Битрейт : 1629 Кбит/сек Ширина : 720 пикселей Высота : 304 пикселя Соотношение сторон : 2,35:1 Режим частоты кадров : Постоянный Частота кадров : 23,976 (23976/1000) кадра/сек Цветовое пространство : YUV Субдискретизация насыщенности : 4:2:0 Битовая глубина : 8 бит Тип развёртки : Прогрессивная Метод сжатия : С потерями Бит/(Пиксели*Кадры) : 0.310 Размер потока : 1,09 Гбайт (79 wacko Библиотека кодирования : XviD 66 Default : Да Forced : Нет



Аудио Идентификатор : 3 Формат : AC-3 Формат/Информация : Audio Coding 3 Расширение режима : CM (complete main) Параметр Endianness формата : Big Идентификатор кодека : A_AC3 Продолжительность : 1 ч. 35 м. Вид битрейта : Постоянный Битрейт : 384 Кбит/сек Каналы : 6 каналов Расположение каналов : Front: L C R, Side: L R, LFE Частота : 48,0 КГц Частота кадров : 31,250 кадров/сек (1536 spf) Битовая глубина : 16 бит Метод сжатия : С потерями Размер потока : 262 Мбайт (19 wacko Default : Да Forced : Нет



Текст Идентификатор : 1 Формат : UTF-8 Идентификатор кодека : S_TEXT/UTF8 Идентификатор кодека/Информация : UTF-8 Plain Text Default : Да Forced : Нет


 






Рейтинг


pic


 





Trailer





Скачал сам, помоги другим! Пиявки полезны только в медицине


Статистика торрента
Раздают: 288 Качают: 5 Размер: 1.37GB Скачали: 0
Имя файла: 41747_The_Offering-20.torrent
Похожие торренты
Отзывы пользователей
Добавить отзыв