9.58GB / Самый опасный человек / A Most Wanted Man (2014) BDRip 1080p | Чистый звук

Категория: фильмы » Триллеры
рейтинг из 5
  • Добавил: zlidny
  • Дата: 26/10/14, 11:20:41
  • Просмотры: 181
  • Отзывы: 0
?????
Название игры:
Год выхода игры:
Жанр игры: Триллеры

Название: Самый опасный человек
Оригинальное название: A Most Wanted Man
Год выхода: 2014
Жанр: триллер
Режиссер: Антон Корбейн
В ролях: Григорий Добрыгин, Филип Сеймур Хоффман, Хомаюн Эршади, Мехди Дехби, Нил Малик Абдулла, Нина Хосс, Даниэль Брюль, Вики Крипс, Костя Улльман, Франц Хартвиг

О фильме: Каждая война начинается со страха. Каждое предательство начинается с доверия. Глава секретного подразделения разведки получает задание найти опасного международного беглеца Ису Карпова, которого из симпатии укрывает молодая девушка-адвокат. Когда в погоню вступают разведки других стран, начинается большая шпионская игра, в которой любой может оказаться наживкой или акулой. А национальная безопасность нередко зависит от простых человеческих чувств.



Выпущено: Великобритания, США, Германия
Продолжительность: 02:02:23
Перевод: Профессиональный (полное дублирование) - Чистый звук

Файл
Качество: BDRip 1080p
Формат: MKV
Видео: MPEG4/AVC, 1920х816 (2.35:1), 10.2 Мбит/сек, 23.976 кадра/сек
Аудио 1: AC3, 2 канала, 384 Кбит/сек | Русский
Аудио 2: AC3, 6 каналов, 640 Кбит/сек | Английский
Субтитры: Английские (Full, SDH)
Навигация по главам: Есть
 

MediaInfo:
Общее
Уникальный идентификатор : 252947340308640874890398134545193083711 (0xBE4BE2BD9600B50EB827D7950AF3A33F)
Полное имя : A Most Wanted Man. (2014) BDRip 1080p.mkv
Формат : Matroska
Версия формата : Version 2
Размер файла : 9,58 Гбайт
Продолжительность : 2 ч. 2 м.
Общий поток : 11,2 Мбит/сек
Название фильма : A Most Wanted Man. 2014
Дата кодирования : UTC 2014-10-25 18:32:42
Программа кодирования : mkvmerge v5.8.0 ('No Sleep / Pillow') built on Sep 2 2012 15:37:04
Библиотека кодирования : libebml v1.2.3 + libmatroska v1.3.0

Видео
Идентификатор : 1
Формат : AVC
Формат/Информация : Advanced Video Codec
Профиль формата : High@L4.1
Параметр CABAC формата : Да
Параметр ReFrames формата : 5 кадров
Идентификатор кодека : V_MPEG4/ISO/AVC
Продолжительность : 2 ч. 2 м.
Битрейт : 10,2 Мбит/сек
Ширина : 1920 пикселей
Высота : 816 пикселей
Соотношение сторон : 2,35:1
Режим частоты кадров : Постоянный
Частота кадров : 23,976 кадра/сек
Цветовое пространство : YUV
Субдискретизация насыщенности : 4:2:0
Битовая глубина : 8 бит
Тип развёртки : Прогрессивная
Бит/(Пиксели*Кадры) : 0.271
Размер потока : 8,51 Гбайт (89%)
Заголовок : CHD
Библиотека кодирования : x264 core 142 r2431 ac76440
Настройки программы : cabac=1 / ref=5 / deblock=1:-3:-3 / analyse=0x3:0x113 / me=umh / subme=10 / psy=1 / psy_rd=1.00:0.05 / mixed_ref=1 / me_range=32 / chroma_me=1 / trellis=2 / 8x8dct=1 / cqm=0 / deadzone=21,11 / fast_pskip=0 / chroma_qp_offset=-2 / threads=18 / lookahead_threads=1 / sliced_threads=0 / nr=0 / decimate=1 / interlaced=0 / bluray_compat=0 / constrained_intra=0 / bframes=5 / b_pyramid=2 / b_adapt=2 / b_bias=0 / direct=3 / weightb=1 / open_gop=0 / weightp=2 / keyint=250 / keyint_min=23 / scenecut=40 / intra_refresh=0 / rc=2pass / mbtree=0 / bitrate=10186 / ratetol=1.0 / qcomp=0.70 / qpmin=0 / qpmax=69 / qpstep=4 / cplxblur=20.0 / qblur=0.5 / ip_ratio=1.40 / pb_ratio=1.30 / aq=2:0.90
Язык : English
Default : Да
Forced : Нет

Аудио #1
Идентификатор : 2
Формат : AC-3
Формат/Информация : Audio Coding 3
Расширение режима : CM (complete main)
Параметр Endianness формата : Big
Идентификатор кодека : A_AC3
Продолжительность : 2 ч. 2 м.
Вид битрейта : Постоянный
Битрейт : 384 Кбит/сек
Каналы : 2 канала
Расположение каналов : Front: L R
Частота : 48,0 КГц
Битовая глубина : 16 бит
Метод сжатия : С потерями
Размер потока : 336 Мбайт (3%)
Заголовок : Line
Язык : Russian
Default : Да
Forced : Нет

Аудио #2
Идентификатор : 3
Формат : AC-3
Формат/Информация : Audio Coding 3
Расширение режима : CM (complete main)
Параметр Endianness формата : Big
Идентификатор кодека : A_AC3
Продолжительность : 2 ч. 2 м.
Вид битрейта : Постоянный
Битрейт : 640 Кбит/сек
Каналы : 6 каналов
Расположение каналов : Front: L C R, Side: L R, LFE
Частота : 48,0 КГц
Битовая глубина : 16 бит
Метод сжатия : С потерями
Размер потока : 560 Мбайт (6%)
Заголовок : Original
Язык : English
Default : Нет
Forced : Нет

Текст #1
Идентификатор : 4
Формат : UTF-8
Идентификатор кодека : S_TEXT/UTF8
Идентификатор кодека/Информация : UTF-8 Plain Text
Заголовок : Full
Язык : English
Default : Нет
Forced : Нет

Текст #2
Идентификатор : 5
Формат : UTF-8
Идентификатор кодека : S_TEXT/UTF8
Идентификатор кодека/Информация : UTF-8 Plain Text
Заголовок : SDH
Язык : English
Default : Нет
Forced : Нет

Меню
00:00:00.000 : en:00:00:00.000
00:08:26.256 : en:00:08:26.256
00:15:38.771 : en:00:15:38.771
00:24:58.872 : en:00:24:58.872
00:30:40.047 : en:00:30:40.047
00:37:54.147 : en:00:37:54.147
00:47:22.381 : en:00:47:22.381
00:52:45.079 : en:00:52:45.079
01:02:10.602 : en:01:02:10.602
01:09:44.430 : en:01:09:44.430
01:16:51.816 : en:01:16:51.816
01:25:22.826 : en:01:25:22.826
01:32:06.229 : en:01:32:06.229
01:40:02.914 : en:01:40:02.914
01:49:38.322 : en:01:49:38.322
01:55:53.029 : en:01:55:53.029

 



Релиз от:


Статистика торрента
Раздают: 295 Качают: 94 Размер: 9.58GB Скачали: 13
Имя файла: 38882_-rutor.org-A_Mo.torrent
Похожие торренты
Отзывы пользователей
Добавить отзыв