7.64GB / День животных / Day of the Animals (1977) BDRip 1080p от NovaLan

Категория: фильмы » Триллеры
рейтинг из 5
  • Добавил: zlidny
  • Дата: 09/09/14, 12:14:20
  • Просмотры: 264
  • Отзывы: 0
?????
Название игры:
Год выхода игры:
Жанр игры: Ужасы, Фантастика, Триллеры

Название: День животных
Оригинальное название: Day of the Animals
Год выхода: 1977
Жанр: Ужасы, фантастика, триллер
Режиссер: Уильям Гёрдлер
В ролях: Кристофер Джордж, Лесли Нильсен, Линда Дэй Джордж, Ричард Джэкел, Майкл Ансара, Рут Роман, Джон Седар, Пол Манти, Уолтер Барнс, Эндрю Стивенс
О фильме:
Разрушение озонового слоя пагубно повлияло на поведение животных, обитающих на высоте пяти тысяч футов. Это становится неприятным открытием для группы туристов, которых доставил в горы вертолет, прежде чем был объявлен карантин. Животные становятся агрессивными и начинают нападать на людей. Чтобы остаться в живых, путешественникам предстоит сражаться с обезумевшими представителями фауны…


Страна: США, Film Ventures International (FVI), Mid-America Pictures, Montoro Productions Ltd.
Продолжительность: 01:37:38
Перевод: Профессиональный многоголосый / Авторский одноголосый (Дольский)

Кодек: H.264
Качество: BDRip 1080p
Видео: MPEG-4 AVC, 9500 Кбит/с, 1920х816, 23.976 кадр/с
Звук: Русский (AC3, 2 ch, 192 Кбит/с), (DTS, 6 ch, 768 Кбит/с), английский (DTS, 6 ch, 768 Кбит/с)
 

Инфо-файл

Полное имя : E:Раздачи_EDay.of.the.Animals.1977.x264.BDRip.1080p.NovaLan.mkv
Формат : Matroska
Версия формата : Version 4 / Version 2
Размер файла : 7,64 Гбайт
Продолжительность : 1 ч. 37 м.
Общий поток : 11,2 Мбит/сек
Название фильма : Day of the Animals 1977 - NovaLan
Дата кодирования : UTC 2014-09-09 05:40:31
Программа кодирования : mkvmerge v7.1.0 ('Good Love') 64bit built on Jul 27 2014 13:06:55
Библиотека кодирования : libebml v1.3.0 + libmatroska v1.4.1
DURATION : 01:37:38.027000000
NUMBER_OF_FRAMES : 549190
NUMBER_OF_BYTES : 552485140
_STATISTICS_WRITING_APP : mkvmerge v7.1.0 ('Good Love') 64bit built on Jul 27 2014 13:06:55
_STATISTICS_WRITING_DATE_UTC : 2014-09-09 05:40:31
_STATISTICS_TAGS : BPS DURATION NUMBER_OF_FRAMES NUMBER_OF_BYTES

Видео
Идентификатор : 1
Формат : AVC
Формат/Информация : Advanced Video Codec
Профиль формата : High@L4.1
Параметр CABAC формата : Да
Параметр ReFrames формата : 4 кадра
Идентификатор кодека : V_MPEG4/ISO/AVC
Продолжительность : 1 ч. 37 м.
Битрейт : 9500 Кбит/сек
Ширина : 1920 пикселей
Высота : 816 пикселей
Соотношение сторон : 2,35:1
Частота кадров : 23,976 кадра/сек
Цветовое пространство : YUV
Субдискретизация насыщенности : 4:2:0
Битовая глубина : 8 бит
Тип развёртки : Прогрессивная
Бит/(Пиксели*Кадры) : 0.253
Размер потока : 6,33 Гбайт (83%)
Заголовок : Sergei7721
Библиотека кодирования : x264 core 133 r2334 a3ac64b
Настройки программы : cabac=1 / ref=4 / deblock=1:-1:-1 / analyse=0x3:0x113 / me=umh / subme=11 / psy=1 / psy_rd=1.00:0.20 / mixed_ref=1 / me_range=24 / chroma_me=1 / trellis=2 / 8x8dct=1 / cqm=0 / deadzone=21,11 / fast_pskip=0 / chroma_qp_offset=-3 / threads=12 / lookahead_threads=1 / sliced_threads=0 / nr=0 / decimate=0 / interlaced=0 / bluray_compat=0 / constrained_intra=0 / bframes=6 / b_pyramid=2 / b_adapt=2 / b_bias=0 / direct=3 / weightb=1 / open_gop=0 / weightp=2 / keyint=240 / keyint_min=23 / scenecut=40 / intra_refresh=0 / rc_lookahead=40 / rc=2pass / mbtree=0 / bitrate=9500 / ratetol=1.0 / qcomp=0.60 / qpmin=0 / qpmax=69 / qpstep=4 / cplxblur=20.0 / qblur=0.5 / vbv_maxrate=50000 / vbv_bufsize=62500 / nal_hrd=none / ip_ratio=1.40 / pb_ratio=1.30 / aq=1:1.00
Default : Да
Forced : Нет
DURATION : 01:37:37.894000000
NUMBER_OF_FRAMES : 140449
NUMBER_OF_BYTES : 6955765321
_STATISTICS_WRITING_APP : mkvmerge v7.1.0 ('Good Love') 64bit built on Jul 27 2014 13:06:55
_STATISTICS_WRITING_DATE_UTC : 2014-09-09 05:40:31
_STATISTICS_TAGS : BPS DURATION NUMBER_OF_FRAMES NUMBER_OF_BYTES

Аудио #1
Идентификатор : 2
Формат : AC-3
Формат/Информация : Audio Coding 3
Расширение режима : CM (complete main)
Параметр Endianness формата : Big
Идентификатор кодека : A_AC3
Продолжительность : 1 ч. 37 м.
Вид битрейта : Постоянный
Битрейт : 192 Кбит/сек
Каналы : 2 канала
Расположение каналов : Front: L R
Частота : 48,0 КГц
Битовая глубина : 16 бит
Метод сжатия : С потерями
Размер потока : 134 Мбайт (2%)
Язык : Russian
Default : Да
Forced : Нет

Аудио #2
Идентификатор : 3
Формат : DTS
Формат/Информация : Digital Theater Systems
Идентификатор кодека : A_DTS
Продолжительность : 1 ч. 37 м.
Вид битрейта : Постоянный
Битрейт : 755 Кбит/сек
Каналы : 6 каналов
Расположение каналов : Front: L C R, Side: L R, LFE
Частота : 48,0 КГц
Битовая глубина : 24 бит
Метод сжатия : С потерями
Размер потока : 527 Мбайт (7%)
Язык : Russian
Default : Нет
Forced : Нет

Аудио #3
Идентификатор : 4
Формат : DTS
Формат/Информация : Digital Theater Systems
Идентификатор кодека : A_DTS
Продолжительность : 1 ч. 37 м.
Вид битрейта : Постоянный
Битрейт : 755 Кбит/сек
Каналы : 6 каналов
Расположение каналов : Front: L C R, Side: L R, LFE
Частота : 48,0 КГц
Битовая глубина : 24 бит
Метод сжатия : С потерями
Размер потока : 527 Мбайт (7%)
Язык : English
Default : Нет
Forced : Нет

Меню
00:00:00.000 : en:00:00:00.000
00:07:48.800 : en:00:07:48.800
00:13:49.410 : en:00:13:49.410
00:19:29.960 : en:00:19:29.960
00:27:31.900 : en:00:27:31.900
00:36:06.289 : en:00:36:06.289
00:44:54.565 : en:00:44:54.565
00:51:23.954 : en:00:51:23.954
00:57:41.958 : en:00:57:41.958
01:03:21.797 : en:01:03:21.797
01:09:43.429 : en:01:09:43.429
01:14:58.659 : en:01:14:58.659
01:16:12.234 : en:01:16:12.234
01:25:38.257 : en:01:25:38.257
01:31:57.677 : en:01:31:57.677
01:35:58.042 : en:01:35:58.042
01:37:38.010 : en:01:37:38.010
 


Релиз группы NovaLan
Автор релиза Sergei7721


За исходник спасибо клубу





Релиз от:


Статистика торрента
Раздают: 42 Качают: 19 Размер: 7.64GB Скачали: 12
Имя файла: 37573_-rutor.org-Day..torrent
Похожие торренты
Отзывы пользователей
Добавить отзыв