5.58GB / Кристи / Kristy (2014) BDRip 1080p | L1

Категория: фильмы » Триллеры
рейтинг из 5
  • Добавил: zlidny
  • Дата: 14/09/14, 22:44:35
  • Просмотры: 174
  • Отзывы: 0
?????
Название игры:
Год выхода игры:
Жанр игры: Ужасы, Триллеры

Название: Кристи / Случайные
Оригинальное название: Kristy / Random
Год выхода: 2014
Жанр: ужасы, триллер
Режиссер: Оливер Блэкберн
В ролях: Хейли Беннетт, Эшли Грин, Лукас Тилл, Джеймс Рэнсон, Крис Кой, Мэтью Ст. Патрик, Челси Брюленд, Джон Л. Армихо, Дэвид Дженсен, Уэйн Пер

О фильме:
Оставшись в одиночестве в кампусе на время празднования Дня Благодарения, студентка вынуждена сражаться с бандой сатанистов. Ей предстоит побороть страхи, проявить все свои хитрость и смекалку, чтобы отразить нападение.



Страна: США
Продолжительность: 01:25:26
Перевод: Любительский одноголосый закадровый - Хихидок

Файл
Формат: MKV
Кодек: AVC
Качество: BDRip 1080p
Видео: 1920x800, 2.40:1, 23.976 fps, 8387 Kbps
Звук:
1. Russian: [Хихидок] AC3 192 Kbps 2ch
2. English: DTS 755 Kbps 6ch
Субтитры: русские (Notabenoid)
Видеоряд: Kristy.2014.1080p.BluRay.x264-MELiTE

Скачать: Сэмпл (на Google Диске)
 

Скриншоты



 

MediaInfo


General

Complete name : Kristy.Random.2014.BDRip.1080p.L1.mkv
Format : Matroska
Format version : Version 2
File size : 5.58 GiB
Duration : 1h 25mn
Overall bit rate : 9 346 Kbps
Encoded date : UTC 2014-09-14 12:08:04
Writing application : mkvmerge v5.8.0 ('No Sleep / Pillow') built on Sep 2 2012 15:37:04
Writing library : libebml v1.2.3 + libmatroska v1.3.0

Video
ID : 1
Format : AVC
Format/Info : Advanced Video Codec
Format profile : High@L4.0
Format settings, CABAC : Yes
Format settings, ReFrames : 5 frames
Codec ID : V_MPEG4/ISO/AVC
Duration : 1h 25mn
Bit rate : 8 387 Kbps
Width : 1 920 pixels
Height : 800 pixels
Display aspect ratio : 2.40:1
Frame rate mode : Constant
Frame rate : 23.976 fps
Color space : YUV
Chroma subsampling : 4:2:0
Bit depth : 8 bits
Scan type : Progressive
Bits/(Pixel*Frame) : 0.228
Stream size : 4.89 GiB (88%)
Title : Kristy 2014
Writing library : x264 core 142 r2453 ea0ca51
Encoding settings : cabac=1 / ref=5 / deblock=1:0:0 / analyse=0x3:0x113 / me=umh / subme=8 / psy=1 / psy_rd=1.00:0.00 / mixed_ref=1 / me_range=16 / chroma_me=1 / trellis=1 / 8x8dct=1 / cqm=0 / deadzone=21,11 / fast_pskip=0 / chroma_qp_offset=-2 / threads=6 / lookahead_threads=1 / sliced_threads=0 / nr=0 / decimate=1 / interlaced=0 / bluray_compat=0 / constrained_intra=0 / bframes=3 / b_pyramid=2 / b_adapt=2 / b_bias=0 / direct=3 / weightb=1 / open_gop=0 / weightp=2 / keyint=250 / keyint_min=23 / scenecut=40 / intra_refresh=0 / rc_lookahead=50 / rc=2pass / mbtree=1 / bitrate=8387 / ratetol=1.0 / qcomp=0.60 / qpmin=0 / qpmax=69 / qpstep=4 / cplxblur=20.0 / qblur=0.5 / ip_ratio=1.40 / aq=1:1.00
Default : Yes
Forced : No

Audio #1
ID : 2
Format : AC-3
Format/Info : Audio Coding 3
Mode extension : CM (complete main)
Format settings, Endianness : Big
Codec ID : A_AC3
Duration : 1h 25mn
Bit rate mode : Constant
Bit rate : 192 Kbps
Channel(s) : 2 channels
Channel positions : Front: L R
Sampling rate : 48.0 KHz
Bit depth : 16 bits
Compression mode : Lossy
Stream size : 117 MiB (2%)
Title : RUS Xixidok AC3 192 stereo
Language : Russian
Default : Yes
Forced : No

Audio #2
ID : 3
Format : DTS
Format/Info : Digital Theater Systems
Mode : 16
Format settings, Endianness : Big
Codec ID : A_DTS
Duration : 1h 25mn
Bit rate mode : Constant
Bit rate : 768 Kbps
Channel(s) : 6 channels
Channel positions : Front: L C R, Side: L R, LFE
Sampling rate : 48.0 KHz
Bit depth : 24 bits
Compression mode : Lossy
Stream size : 469 MiB (8%)
Title : ENG DTS 755 6 channels
Language : English
Default : No
Forced : No

Text
ID : 4
Format : UTF-8
Codec ID : S_TEXT/UTF8
Codec ID/Info : UTF-8 Plain Text
Title : RUS Subtitles (Notabenoid)
Language : Russian
Default : No
Forced : No

Menu
00:00:00.000 : :Chapter 01
00:04:57.047 : :Chapter 02
00:10:20.995 : :Chapter 03
00:18:54.967 : :Chapter 04
00:28:47.976 : :Chapter 05
00:35:24.372 : :Chapter 06
00:42:14.949 : :Chapter 07
00:48:55.975 : :Chapter 08
00:59:02.914 : :Chapter 09
01:06:27.942 : :Chapter 10
01:13:59.894 : :Chapter 11
01:18:29.914 : :Chapter 12


Статистика торрента
Раздают: 258 Качают: 60 Размер: 5.58GB Скачали: 16
Имя файла: 37719_-rutor.org-Kris.torrent
Похожие торренты
Отзывы пользователей
Добавить отзыв