2.99GB / Окулус / Oculus (2013) BDRip-AVC | iPad | D iTunes

Категория: фильмы » Триллеры
рейтинг из 5
  • Добавил: zlidny
  • Дата: 31/07/14, 11:23:37
  • Просмотры: 326
  • Отзывы: 0
?????
Название игры:
Год выхода игры:
Жанр игры: Ужасы, Триллеры

Название: Окулус
Оригинальное название: Oculus
Год выхода: 2013
Жанр: ужасы, триллер
Режиссер: Майк Флэнеган
В ролях: Карен Гиллан, Брентон Туэйтес, Кэти Сакхофф, Рори Кокрейн, Анналиса Бассо, Гаррет Райан, Джеймс Лэфферти, Мигель Сандовал, Кейт Сигел, Скотт Грэхэм

О фильме:
Смерть родителей сильно повлияла на судьбу двух осиротевших детей. По прошествии времени, в двадцатилетнем возрасте, сестра все еще продолжает так считать и хочет доказать брату, что привидение, вышедшее из зеркала, стало причиной гибели близких людей и всех случившихся последующих бед…




Страна: США
Студия: Relativity Media, Intrepid Pictures, MICA Entertainment

Продолжительность: 01:44:03
Перевод: Русский дублированный

Файл
Кодек: H.264
Качество: BDRip-AVC [576p]
Видео: 1024x428 (2.40:1) at 23.976 fps, AVC at 3700 kbps
Звук:
1: АAС 2.0 170 kbps - Русский дублированный (iTunes)
2: АAС 2.0 170 kbps - Английский
Субтитры: отсутствуют
 

MI

General
Complete name : C:CREATE264mod1outOculus.2013.576p.D.m4v
Format : MPEG-4
Codec ID : M4V
File size : 2.99 GiB
Duration : 1h 44mn
Overall bit rate mode : Variable
Overall bit rate : 4 107 Kbps
Movie name : Окулус
Performer : Mike Flanagan, Melinda Taksen
Genre : Horror
ContentType : Short Film
Deion : Смерть родителей сильно повлияла на судьбу двух осиротевших детей. По прошествии времени, в двадцатилетнем возрасте, сестра все еще продолжает так считать и хочет доказать брату, что привидение, вышедшее из зеркала, стало причиной гибели людей
Recorded date : UTC 2013-09-08 08:00:00
Encoded date : UTC 2014-07-31 06:26:08
Tagged date : UTC 2014-07-31 06:32:24
Copyright : Relativity Media, Intrepid Pictures, MICA Entertainment
Cover : Yes
Comment : «Хочешь жить – закрой глаза»
ContentRating : mpaa|R|400|

Title/Sort : Oculus
LongDeion : Смерть родителей сильно повлияла на судьбу двух осиротевших детей. По прошествии времени, в двадцатилетнем возрасте, сестра все еще продолжает так считать и хочет доказать брату, что привидение, вышедшее из зеркала, стало причиной гибели близких людей и всех случившихся последующих бед…
AppleStoreCatalogID : 680499
Vendor : Apple:vendor_id:2013-680499

Video
ID : 1
Format : AVC
Format/Info : Advanced Video Codec
Format profile : High@L4.1
Format settings, CABAC : Yes
Format settings, ReFrames : 10 frames
Codec ID : avc1
Codec ID/Info : Advanced Video Coding
Duration : 1h 44mn
Bit rate : 3 754 Kbps
Maximum bit rate : 12.0 Mbps
Width : 1 024 pixels
Height : 428 pixels
Display aspect ratio : 2.40:1
Frame rate mode : Constant
Frame rate : 23.976 fps
Color space : YUV
Chroma subsampling : 4:2:0
Bit depth : 8 bits
Scan type : Progressive
Bits/(Pixel*Frame) : 0.357
Stream size : 2.73 GiB (91%)
Title : Oculus.2013
Language : English
Encoded date : UTC 2014-07-31 06:26:08
Tagged date : UTC 2014-07-31 06:26:33

Audio #1
ID : 2
Format : AAC
Format/Info : Advanced Audio Codec
Format profile : LC
Codec ID : 40
Duration : 1h 44mn
Bit rate mode : Variable
Bit rate : 170 Kbps
Maximum bit rate : 206 Kbps
Channel(s) : 2 channels
Channel positions : Front: L R
Sampling rate : 48.0 KHz
Compression mode : Lossy
Stream size : 126 MiB (4%)
Title : DUB iTunes
Language : Russian
Encoded date : UTC 2014-07-31 06:18:37
Tagged date : UTC 2014-07-31 06:26:33

Audio #2
ID : 3
Format : AAC
Format/Info : Advanced Audio Codec
Format profile : LC
Codec ID : 40
Duration : 1h 44mn
Bit rate mode : Variable
Bit rate : 171 Kbps
Maximum bit rate : 210 Kbps
Channel(s) : 2 channels
Channel positions : Front: L R
Sampling rate : 48.0 KHz
Compression mode : Lossy
Stream size : 127 MiB (4%)
Language : English
Encoded date : UTC 2014-07-31 06:24:12
Tagged date : UTC 2014-07-31 06:26:33

Menu
ID : 4
Codec ID : text
Duration : 1h 44mn
Encoded date : UTC 2014-07-31 06:27:07
Tagged date : UTC 2014-07-31 06:27:07
Bit rate mode : CBR
iTunes tags


Sort Name: Oculus
XID: Apple:vendor_id:2013-680499
Content ID: 680499
Copyright: Relativity Media, Intrepid Pictures, MICA Entertainment
ScreenWriters: Майк Флэнеган, Джефф Ховард, Джефф Сейдман
Producers: Марк Д. Эванс, Тревор Мэйси, Джейсон Блум
Director: Майк Флэнеган
Cast: Карен Гиллан, Брентон Туэйтес, Кэти Сакхофф, Рори Кокрейн, Анналиса Бассо, Гаррет Райан, Джеймс Лэфферти, Мигель Сандовал, Кейт Сигел, Скотт Грэхэм // Katee Sackhoff (Marie Russell), Karen Gillan (Kaylie Russell), Brenton Thwaites (Tim Russell), James Lafferty (Michael Dumont), Rory Cochrane (Alan Russell), Garrett Ryan (Young Tim), Kate Siegel (Marisol Chavez), Katie Parker (Phone Store Clerk), Miguel Sandoval (Dr. Shawn Graham)
Rating: R
Long Deion: Смерть родителей сильно повлияла на судьбу двух осиротевших детей. По прошествии времени, в двадцатилетнем возрасте, сестра все еще продолжает так считать и хочет доказать брату, что привидение, вышедшее из зеркала, стало причиной гибели близких людей и всех случившихся последующих бед…
Deion: Смерть родителей сильно повлияла на судьбу двух осиротевших детей. По прошествии времени, в двадцатилетнем возрасте, сестра все еще продолжает так считать и хочет доказать брату, что привидение, вышедшее из зеркала, стало причиной гибели людей
Release Date: 2013-09-08T08:00:00Z
Genre: Horror
Artist: Mike Flanagan, Melinda Taksen
Name: Окулус
 
x264

x264 [info]: frame I:1270 Avg QP:16.11 size: 95918
x264 [info]: frame P:31101 Avg QP:18.13 size: 46034
x264 [info]: frame B:117317 Avg QP:19.50 size: 11733
x264 [info]: consecutive B-frames: 1.8% 1.3% 13.9% 9.3% 13.1% 44.6% 12.3% 2.0% 0.9% 0.5% 0.1% 0.1% 0.1% 0.0% 0.0%
x264 [info]: mb I I16..4: 41.1% 31.9% 27.0%
x264 [info]: mb P I16..4: 8.4% 8.7% 3.1% P16..4: 15.6% 27.2% 22.1% 11.2% 2.2% skip: 1.4%
x264 [info]: mb B I16..4: 0.2% 0.8% 0.1% B16..8: 25.1% 18.9% 5.2% direct:15.0% skip:34.7% L0:34.6% L1:42.9% BI:22.4%
x264 [info]: 8x8 transform intra:45.1% inter:20.6%
x264 [info]: coded y,uvDC,uvAC intra: 99.5% 64.4% 47.2% inter: 38.4% 12.0% 5.3%
x264 [info]: i16 v,h,dc,p: 1% 1% 46% 52%
x264 [info]: i8 v,h,dc,ddl,ddr,vr,hd,vl,hu: 14% 9% 23% 7% 8% 9% 8% 10% 10%
x264 [info]: i4 v,h,dc,ddl,ddr,vr,hd,vl,hu: 12% 7% 9% 10% 13% 14% 12% 12% 12%
x264 [info]: i8c dc,h,v,p: 29% 37% 22% 13%
x264 [info]: Weighted P-Frames: Y:3.5% UV:1.5%
x264 [info]: ref P L0: 54.2% 8.7% 13.3% 6.9% 5.0% 3.9% 3.1% 1.9% 1.6% 1.4% 0.1% 0.0%
x264 [info]: ref B L0: 89.8% 4.6% 2.1% 1.1% 0.8% 0.6% 0.5% 0.3% 0.2%
x264 [info]: ref B L1: 96.4% 3.6%
x264 [info]: kb/s:3754.44
Screenshots



Статистика торрента
Раздают: 66 Качают: 94 Размер: 2.99GB Скачали: 9
Имя файла: 36476_-rutor.org-Ocul.torrent
Похожие торренты
Отзывы пользователей
Добавить отзыв