2.89GB / Самый опасный человек / A Most Wanted Man (Антон Корбейн) [2014, триллер, BDRip-AVC]

Категория: фильмы » Триллеры
рейтинг из 5
  • Добавил: zlidny
  • Дата: 29/10/14, 10:49:53
  • Просмотры: 239
  • Отзывы: 0
?????
Название игры:
Год выхода игры:
Жанр игры: Триллеры

Перевод: Профессиональный (полное дублирование) iTunes
Субтитры: Английские
Формат: BDRip-AVC, MKV, H.264, AC3
Страна: Великобритания, США, Германия
Режиссер: Антон Корбейн
Жанр: триллер
Продолжительность: 02:02:23
Год выпуска: 2014

В ролях: Филип Сеймур Хоффман, Рэйчел МакАдамс, Уиллем Дефо, Робин Райт, Григорий Добрыгин, Хомаюн Эршади, Мехди Дехби, Нил Малик Абдулла, Нина Хосс, Даниэль Брюль

Описание: Каждая война начинается со страха. Каждое предательство начинается с доверия. Глава секретного подразделения разведки получает задание найти опасного международного беглеца Иссу Карпова, которого из симпатии укрывает молодая девушка-адвокат. Когда в погоню вступают разведки других стран, начинается большая шпионская игра, в которой любой может оказаться наживкой или акулой. А национальная безопасность нередко зависит от простых человеческих чувств.



Видео: 1024x436 (2.35:1), 23.976 fps, AVC MPEG-4 (H.264), High@L4.1 ~2550 kbps, 0.238 bit/pixel
Аудио #1: Русский: 48 kHz, AC3 Dolby Digital, 3/2 (L,C,R,l,r) + LFE ch, ~384 kbps[Профессиональный (полное дублирование)]
Аудио #2: Английский:48 kHz, AC3 Dolby Digital, 3/2 (L,C,R,l,r) + LFE ch, ~448 kbps [Оригинал]
 

Отчет MediaInfo
Общее
Уникальный идентификатор : 228784435851150063066308210562657825992 (0xAC1E4792A8012CB79A4EF580EE6634C8)
Полное имя : D:Samyi.opasnyi.chelovek.2014.BDRip.(AVC)-MediaClub.mkv
Формат : Matroska
Версия формата : Version 4 / Version 2
Размер файла : 2,89 Гбайт
Продолжительность : 2 ч. 2 м.
Общий поток : 3382 Кбит/сек
Название фильма : -=MediaClub-kaspr=-
Дата кодирования : UTC 2014-10-28 14:29:33
Программа кодирования : mkvmerge v6.9.1 ('Blue Panther') 64bit built on Apr 18 2014 18:23:38
Библиотека кодирования : libebml v1.3.0 + libmatroska v1.4.1

Видео
Идентификатор : 1
Формат : AVC
Формат/Информация : Advanced Video Codec
Профиль формата : High@L4.1
Параметр CABAC формата : Да
Параметр ReFrames формата : 10 кадров
Идентификатор кодека : V_MPEG4/ISO/AVC
Продолжительность : 2 ч. 2 м.
Битрейт : 2550 Кбит/сек
Ширина : 1024 пикселя
Высота : 436 пикселей
Соотношение сторон : 2,35:1
Режим частоты кадров : Постоянный
Частота кадров : 23,976 кадра/сек
Цветовое пространство : YUV
Субдискретизация насыщенности : 4:2:0
Битовая глубина : 8 бит
Тип развёртки : Прогрессивная
Бит/(Пиксели*Кадры) : 0.238
Размер потока : 2,12 Гбайт (73%)
Заголовок : -=MediaClub-kaspr=-
Библиотека кодирования : x264 core 142 r2431+42 c69a006 tMod [8-bit@4:2:0 X86_64]
Настройки программы : cabac=1 / ref=10 / deblock=1:-3:-3 / analyse=0x3:0x113 / me=umh / subme=11 / psy=1 / fade_compensate=0.00 / psy_rd=1.00:0.20 / mixed_ref=1 / me_range=32 / chroma_me=1 / trellis=2 / 8x8dct=1 / cqm=0 / deadzone=21,11 / fast_pskip=0 / chroma_qp_offset=-3 / threads=12 / lookahead_threads=3 / sliced_threads=0 / nr=0 / decimate=0 / interlaced=0 / bluray_compat=0 / constrained_intra=0 / fgo=0 / bframes=14 / b_pyramid=2 / b_adapt=2 / b_bias=0 / direct=3 / weightb=1 / open_gop=0 / weightp=2 / keyint=240 / keyint_min=23 / scenecut=40 / intra_refresh=0 / rc=2pass / mbtree=0 / bitrate=2550 / ratetol=1.0 / qcomp=0.60 / qpmin=0:0:0 / qpmax=69:69:69 / qpstep=4 / cplxblur=20.0 / qblur=0.5 / ip_ratio=1.40 / pb_ratio=1.30 / aq=4:0.80 / aq-sensitivity=10.00 / aq-factor=1.00:1.00:1.00 / aq2=0 / aq3=0
Default : Да
Forced : Нет

Аудио #1
Идентификатор : 2
Формат : AC-3
Формат/Информация : Audio Coding 3
Расширение режима : CM (complete main)
Параметр Endianness формата : Big
Идентификатор кодека : A_AC3
Продолжительность : 2 ч. 2 м.
Вид битрейта : Постоянный
Битрейт : 384 Кбит/сек
Каналы : 6 каналов
Расположение каналов : Front: L C R, Side: L R, LFE
Частота : 48,0 КГц
Битовая глубина : 16 бит
Метод сжатия : С потерями
Размер потока : 336 Мбайт (11%)
Заголовок : DUB
Язык : Russian
Default : Да
Forced : Нет

Аудио #2
Идентификатор : 3
Формат : AC-3
Формат/Информация : Audio Coding 3
Расширение режима : CM (complete main)
Параметр Endianness формата : Big
Идентификатор кодека : A_AC3
Продолжительность : 2 ч. 2 м.
Вид битрейта : Постоянный
Битрейт : 448 Кбит/сек
Каналы : 6 каналов
Расположение каналов : Front: L C R, Side: L R, LFE
Частота : 48,0 КГц
Битовая глубина : 16 бит
Метод сжатия : С потерями
Размер потока : 392 Мбайт (13%)
Язык : English
Default : Нет
Forced : Нет

Текст
Идентификатор : 4
Формат : UTF-8
Идентификатор кодека : S_TEXT/UTF8
Идентификатор кодека/Информация : UTF-8 Plain Text
Язык : English
Default : Нет
Forced : Нет

Меню
00:00:00.000 : en:00:00:00.000
00:08:26.256 : en:00:08:26.256
00:15:38.771 : en:00:15:38.771
00:24:58.872 : en:00:24:58.872
00:30:40.047 : en:00:30:40.047
00:37:54.147 : en:00:37:54.147
00:47:22.381 : en:00:47:22.381
00:52:45.079 : en:00:52:45.079
01:02:10.602 : en:01:02:10.602
01:09:44.430 : en:01:09:44.430
01:16:51.816 : en:01:16:51.816
01:25:22.826 : en:01:25:22.826
01:32:06.229 : en:01:32:06.229
01:40:02.914 : en:01:40:02.914
01:49:38.322 : en:01:49:38.322
01:55:53.029 : en:01:55:53.029

Статистика торрента
Раздают: 76 Качают: 24 Размер: 2.89GB Скачали: 7
Имя файла: 39002_Samyi.opasnyi.c.torrent
Похожие торренты
Отзывы пользователей
Добавить отзыв