2.21GB / Сигнал / The Signal (Уильям Юбэнк) [2014, фантастика, триллер, WEBRip]

Категория: фильмы » Триллеры
рейтинг из 5
  • Добавил: zlidny
  • Дата: 01/08/14, 14:52:25
  • Просмотры: 225
  • Отзывы: 0
?????
Название игры:
Год выхода игры:
Жанр игры: Фантастика, Триллеры

Перевод: Любительский (одноголосый) [PashaUP], субтитры:вшитые корейские
Формат: WEBRip, MKV, H.264, AC3
Страна: США
Режиссер: Уильям Юбэнк
Жанр: фантастика, триллер
Продолжительность: 01:34:12
Год выпуска: 2014
В ролях: Лоренс Фишбёрн, Патрик Дэвидсон, Брентон Туэйтс, Оливия Кук, Бо Напп, Джеффри Гроувер, Рой Кенни, Тимоти Холмс, Рикардо Кампос, Дрю Сайкес

Описание: Группа хакеров-студентов внезапно начала получать странные послания, которые им отправлял некто NOMAD. Ребятам даже в голову не могло прийти, чем это все может для них обернутся. Осознание того, что все это слишком серьезно пришло после того, как ими заинтересовались спецслужбы, занимающиеся внеземными цивилизациями. Оказалось, что молодые хакеры были избраны кем-то или чем-то из за пределов нашей планеты. Теперь спец агенты считают молодых студентов опасными, причем опасность грозит всем землянам...



Видео: 1280 x 536 (2.388) at 24.000 fps, MPEG4 Video ~3364 kbps
Аудио: AC-3 at 192 Кбит/сек, 2 канала, 48,0 КГц

Доп. информация: Денег потрачено: $4 000 000
Выручено в США: $600 896
Премьера в мире: 20 января 2014
Дата выхода РФ: 4 сентября 2014, «Централ Партнершип»
Продолжительность: 95 мин. / 01:35
 

MediaInfo

Общее
Уникальный идентификатор : 200341592718229105198088384041709747776 (0x96B86322F641F0A3828D47D6CDE43E40)
Полное имя : F:\The.Signal.2014.L1.WEBRip.720p.mkv
Формат : Matroska
Версия формата : Version 4 / Version 2
Размер файла : 2,21 Гбайт
Продолжительность : 1 ч. 34 м.
Общий поток : 3364 Кбит/сек
Дата кодирования : UTC 2014-07-31 11:24:25
Программа кодирования : mkvmerge v6.1.0 ('Old Devil') built on Mar 4 2013 09:10:42
Библиотека кодирования : libebml v1.3.0 + libmatroska v1.4.0

Видео
Идентификатор : 1
Формат : AVC
Формат/Информация : Advanced Video Codec
Профиль формата : High@L3.1
Параметр CABAC формата : Да
Параметр ReFrames формата : 4 кадра
Идентификатор кодека : V_MPEG4/ISO/AVC
Продолжительность : 1 ч. 34 м.
Битрейт : 3000 Кбит/сек
Ширина : 1280 пикселей
Высота : 536 пикселей
Соотношение сторон : 2,40:1
Режим частоты кадров : Постоянный
Частота кадров : 24,000 кадра/сек
Цветовое пространство : YUV
Субдискретизация насыщенности : 4:2:0
Битовая глубина : 8 бит
Тип развёртки : Прогрессивная
Бит/(Пиксели*Кадры) : 0.182
Размер потока : 1,90 Гбайт (86%)
Библиотека кодирования : x264 core 142 r2431 ac76440
Настройки программы : cabac=1 / ref=4 / deblock=1:0:0 / analyse=0x3:0x113 / me=umh / subme=8 / psy=1 / psy_rd=1.00:0.00 / mixed_ref=1 / me_range=16 / chroma_me=1 / trellis=1 / 8x8dct=1 / cqm=0 / deadzone=21,11 / fast_pskip=1 / chroma_qp_offset=-2 / threads=12 / lookahead_threads=2 / sliced_threads=0 / nr=0 / decimate=1 / interlaced=0 / bluray_compat=0 / constrained_intra=0 / bframes=3 / b_pyramid=2 / b_adapt=2 / b_bias=0 / direct=3 / weightb=1 / open_gop=0 / weightp=2 / keyint=240 / keyint_min=24 / scenecut=40 / intra_refresh=0 / rc_lookahead=50 / rc=abr / mbtree=1 / bitrate=3000 / ratetol=1.0 / qcomp=0.60 / qpmin=0 / qpmax=69 / qpstep=4 / vbv_maxrate=17500 / vbv_bufsize=17500 / nal_hrd=none / filler=0 / ip_ratio=1.40 / aq=1:1.00
Язык : English
Default : Да
Forced : Нет
Основные цвета : BT.709
Характеристики трансфера : BT.709
Коэффициенты матрицы : BT.709

Аудио #1
Идентификатор : 2
Формат : AC-3
Формат/Информация : Audio Coding 3
Расширение режима : CM (complete main)
Параметр Endianness формата : Big
Идентификатор кодека : A_AC3
Продолжительность : 1 ч. 34 м.
Вид битрейта : Постоянный
Битрейт : 192 Кбит/сек
Каналы : 2 канала
Расположение каналов : Front: L R
Частота : 48,0 КГц
Битовая глубина : 16 бит
Метод сжатия : С потерями
Задержка видео : -83 мс.
Размер потока : 129 Мбайт (6%)
Язык : Russian
Default : Да
Forced : Нет

Аудио #2
Идентификатор : 3
Формат : AC-3
Формат/Информация : Audio Coding 3
Расширение режима : CM (complete main)
Параметр Endianness формата : Big
Идентификатор кодека : A_AC3
Продолжительность : 1 ч. 34 м.
Вид битрейта : Постоянный
Битрейт : 224 Кбит/сек
Каналы : 2 канала
Расположение каналов : Front: L R
Частота : 48,0 КГц
Битовая глубина : 16 бит
Метод сжатия : С потерями
Задержка видео : -5 мс.
Размер потока : 151 Мбайт (7%)
Язык : English
Default : Нет
Forced : Нет



скриншоты






Статистика торрента
Раздают: 398 Качают: 32 Размер: 2.21GB Скачали: 9
Имя файла: 36559_The.Signal.2014.torrent
Похожие торренты
Отзывы пользователей
Добавить отзыв