1.75GB / Философы: Урок выживания / The Philosophers (2013) HDRip-AVC от ExKinoRay | Лицензия

Категория: фильмы » Триллеры
рейтинг из 5
  • Добавил: zlidny
  • Дата: 09/09/14, 10:36:18
  • Просмотры: 208
  • Отзывы: 0
?????
Название игры:
Год выхода игры:
Жанр игры: Фантастика, Триллеры

Название: Философы: Урок выживания
Оригинальное название: The Philosophers
Год выпуска: 2013
Жанр: Фантастика, триллер
Выпущено: США, Индонезия, An Olive Branch Productions, SCTV
Режиссер: Джон Хаддлс
В ролях: Софи Лоу, Джеймс Д`Арси, Рис Уэйкфилд, Дэрил Сабара, Бонни Райт, Кэти Файндлей, Фредди Строма, Хоуп Олэйд Уилсон, Абхи Синха, Джейкоб Артист, Майя Митчелл, Эрин Мориарти

О фильме: В международной школе в Джакарте таинственный учитель философии в качестве выпускного экзамена предлагает 20 студентам провести мысленный эксперимент. Этот опыт будет самым экстремальным, с которым они когда-либо сталкивались. Используя только силу логики, студенты должны выбрать, кто из них будет достоин получить место в подземном бункере - единственном месте, где можно спастись от приближающейся ядерной катастрофы. Бункер рассчитан на десять человек, а значит тех, кого не выбирают, ожидает жестокая смерть. Реальность классной комнаты эффектно перетекает в воображаемый, но в то же время пугающий мир надвигающегося апокалипсиса.



Файл
Качество: HDRip (AVC)
Видео: MPEG-4 AVC, 1452 Кбит/с, 1024x424
Аудио: Русский, английский (AC3, 6 ch, 448 Кбит/с)
Продолжительность: 01:42:24
Перевод: Дублированный
 

MI
General
Unique ID : 203033519657737031360290398595647286119 (0x98BED561B7F41A7A94DBF3E2F3D42B67)
Complete name : C:The.philosophers.2013.D.HDRip.AVC.ExKinoRay.mkv
Format : Matroska
Format version : Version 2
File size : 1.75 GiB
Duration : 1h 46mn
Overall bit rate : 2 348 Kbps
Movie name : The Philosophers 2013 from ExKinoRay
Encoded date : UTC 2014-09-09 01:46:01
Writing application : mkvmerge v4.9.1 ('Ich will') built on Jul 11 2011 23:53:15
Writing library : libebml v1.2.1 + libmatroska v1.1.1

Video
ID : 1
Format : AVC
Format/Info : Advanced Video Codec
Format profile : High@L4.1
Format settings, CABAC : Yes
Format settings, ReFrames : 9 frames
Codec ID : V_MPEG4/ISO/AVC
Duration : 1h 46mn
Bit rate : 1 452 Kbps
Width : 1 024 pixels
Height : 424 pixels
Display aspect ratio : 2.40:1
Frame rate mode : Constant
Frame rate : 24.000 fps
Color space : YUV
Chroma subsampling : 4:2:0
Bit depth : 8 bits
Scan type : Progressive
Bits/(Pixel*Frame) : 0.139
Stream size : 1.05 GiB (60%)
Title : Enigma-Vladislav71
Writing library : x264 core 116 r2044 392e762
Encoding settings : cabac=1 / ref=9 / deblock=1:-3:-3 / analyse=0x3:0x113 / me=umh / subme=10 / psy=1 / psy_rd=1.00:0.20 / mixed_ref=1 / me_range=32 / chroma_me=1 / trellis=2 / 8x8dct=1 / cqm=0 / deadzone=21,11 / fast_pskip=0 / chroma_qp_offset=-3 / threads=12 / sliced_threads=0 / nr=0 / decimate=0 / interlaced=0 / bluray_compat=0 / constrained_intra=0 / bframes=9 / b_pyramid=2 / b_adapt=2 / b_bias=0 / direct=3 / weightb=1 / open_gop=0 / weightp=2 / keyint=240 / keyint_min=24 / scenecut=40 / intra_refresh=0 / rc=2pass / mbtree=0 / bitrate=1452 / ratetol=1.0 / qcomp=0.60 / qpmin=0 / qpmax=69 / qpstep=4 / cplxblur=20.0 / qblur=0.5 / ip_ratio=1.40 / pb_ratio=1.30 / aq=1:1.00
Default : Yes
Forced : No

Audio #1
ID : 2
Format : AC-3
Format/Info : Audio Coding 3
Mode extension : CM (complete main)
Format settings, Endianness : Big
Codec ID : A_AC3
Duration : 1h 46mn
Bit rate mode : Constant
Bit rate : 448 Kbps
Channel(s) : 6 channels
Channel positions : Front: L C R, Side: L R, LFE
Sampling rate : 48.0 KHz
Bit depth : 16 bits
Compression mode : Lossy
Stream size : 342 MiB (19%)
Title : DUB
Language : Russian
Default : Yes
Forced : No

Audio #2
ID : 3
Format : AC-3
Format/Info : Audio Coding 3
Mode extension : CM (complete main)
Format settings, Endianness : Big
Codec ID : A_AC3
Duration : 1h 46mn
Bit rate mode : Constant
Bit rate : 448 Kbps
Channel(s) : 6 channels
Channel positions : Front: L C R, Side: L R, LFE
Sampling rate : 48.0 KHz
Bit depth : 16 bits
Compression mode : Lossy
Stream size : 342 MiB (19%)
Language : English
Default : No
Forced : No

Menu
00:07:30.000 : en:Chapter 01
00:15:00.000 : en:Chapter 02
00:22:30.000 : en:Chapter 03
00:30:00.000 : en:Chapter 04
00:37:30.000 : en:Chapter 05
00:45:00.000 : en:Chapter 06
00:52:30.000 : en:Chapter 07
01:00:00.000 : en:Chapter 08
01:07:30.000 : en:Chapter 09
01:15:00.000 : en:Chapter 10
01:22:30.000 : en:Chapter 11
01:30:00.000 : en:Chapter 12
01:37:30.000 : en:Chapter 12
 

 

Скриншоты




Релиз от:

Авторы релиза:


Статистика торрента
Раздают: 207 Качают: 131 Размер: 1.75GB Скачали: 14
Имя файла: 37544_-rutor.org-The..torrent
Похожие торренты
Отзывы пользователей
Добавить отзыв