1.45GB / Кристи / Случайные / Kristy / Random (Оливер Блэкберн) [2014, ужасы, триллер, HDRip-AVC]

Категория: фильмы » Триллеры
рейтинг из 5
  • Добавил: zlidny
  • Дата: 22/08/14, 18:24:12
  • Просмотры: 293
  • Отзывы: 0
?????
Название игры:
Год выхода игры:
Жанр игры: Ужасы, Триллеры

Перевод: Любительский (одноголосый) [Xixidok]

Cубтитры: русские

Формат: HDRip-AVC, MKV, H.264, AC3

Страна: США

Режиссер: Оливер Блэкберн

Жанр: ужасы, триллер

Продолжительность: 01:25:26

Год выпуска: 2014

В ролях: Эшли Грин, Лукас Тилл, Хейли Беннетт, Джеймс Рэнсон, Крис Кой, Мэтью Ст. Патрик, Челси Брюленд, Джон Л. Армихо, Дэвид Дженсен, Уэйн Пер

Описание: Оставшись в одиночестве в кампусе на время празднования Дня Благодарения, студентка вынуждена сражаться с бандой бродяг. Ей предстоит побороть страхи, проявить все свои хитрость и смекалку, чтобы отразить нападение.

_________________

Видео: 1024x428 (2,40:1), 23.976 fps, AVC (H.264), High@L4.1 ~ 1790 Кbps, 0.170 bit/pixel

Аудио #1: Русский: 48 kHz, AC3 Dolby Digital, 2/0 (L,R) ch, 192.00 kbps [Любительский (одноголосый)]
Аудио #2: Английский: 48 kHz, AC3 Dolby Digital, 3/2 (L,C,R,l,r) + LFE ch, ~384 kbps [Оригинал]
 

MediaInfo
General
Complete name : Kristy.Random.2014.HDRip-AVC.VO.mkv
Format : Matroska
Format version : Version 2
File size : 1.45 GiB
Duration : 1h 25mn
Overall bit rate : 2 432 Kbps
Encoded date : UTC 2014-08-17 09:27:47
Writing application : mkvmerge v5.8.0 ('No Sleep / Pillow') built on Sep 2 2012 15:37:04
Writing library : libebml v1.2.3 + libmatroska v1.3.0

Video
ID : 1
Format : AVC
Format/Info : Advanced Video Codec
Format profile : High@L4.1
Format settings, CABAC : Yes
Format settings, ReFrames : 12 frames
Codec ID : V_MPEG4/ISO/AVC
Duration : 1h 25mn
Bit rate : 1 790 Kbps
Width : 1 024 pixels
Height : 428 pixels
Display aspect ratio : 2.40:1
Frame rate mode : Constant
Frame rate : 23.976 fps
Color space : YUV
Chroma subsampling : 4:2:0
Bit depth : 8 bits
Scan type : Progressive
Bits/(Pixel*Frame) : 0.170
Stream size : 1.04 GiB (72%)
Title : Kristy 2014
Writing library : x264 core 135 r2345 f0c1c53
Encoding settings : cabac=1 / ref=12 / deblock=1:-3:-3 / analyse=0x3:0x113 / me=umh / subme=11 / psy=1 / psy_rd=1.20:0.00 / mixed_ref=1 / me_range=32 / chroma_me=1 / trellis=2 / 8x8dct=1 / cqm=0 / deadzone=21,11 / fast_pskip=1 / chroma_qp_offset=-2 / threads=6 / lookahead_threads=1 / sliced_threads=0 / nr=0 / decimate=1 / interlaced=0 / bluray_compat=0 / constrained_intra=0 / bframes=8 / b_pyramid=2 / b_adapt=2 / b_bias=0 / direct=3 / weightb=1 / open_gop=0 / weightp=2 / keyint=240 / keyint_min=23 / scenecut=40 / intra_refresh=0 / rc=2pass / mbtree=0 / bitrate=1790 / ratetol=1.0 / qcomp=0.60 / qpmin=0 / qpmax=69 / qpstep=4 / cplxblur=20.0 / qblur=0.5 / ip_ratio=1.40 / pb_ratio=1.30 / aq=2:0.70
Default : Yes
Forced : No

Audio #1
ID : 2
Format : AC-3
Format/Info : Audio Coding 3
Mode extension : CM (complete main)
Format settings, Endianness : Big
Codec ID : A_AC3
Duration : 1h 25mn
Bit rate mode : Constant
Bit rate : 192 Kbps
Channel(s) : 2 channels
Channel positions : Front: L R
Sampling rate : 48.0 KHz
Bit depth : 16 bits
Compression mode : Lossy
Stream size : 117 MiB (8%)
Title : RUS AC3 192 stereo VO-Xixidok
Language : Russian
Default : Yes
Forced : No

Audio #2
ID : 3
Format : AC-3
Format/Info : Audio Coding 3
Mode extension : CM (complete main)
Format settings, Endianness : Big
Codec ID : A_AC3
Duration : 1h 25mn
Bit rate mode : Constant
Bit rate : 448 Kbps
Channel(s) : 6 channels
Channel positions : Front: L C R, Side: L R, LFE
Sampling rate : 48.0 KHz
Bit depth : 16 bits
Compression mode : Lossy
Stream size : 274 MiB (18%)
Title : ENG AC3 448 6ch original
Language : English
Default : No
Forced : No

Text
ID : 4
Format : UTF-8
Codec ID : S_TEXT/UTF8
Codec ID/Info : UTF-8 Plain Text
Title : SUB RUS Notabenoid
Language : Russian
Default : No
Forced : No

Menu
00:00:00.000 : :Chapter 01
00:04:57.047 : :Chapter 02
00:10:20.995 : :Chapter 03
00:18:54.967 : :Chapter 04
00:28:47.976 : :Chapter 05
00:35:24.372 : :Chapter 06
00:42:14.949 : :Chapter 07
00:48:55.975 : :Chapter 08
00:59:02.914 : :Chapter 09
01:06:27.942 : :Chapter 10
01:13:59.894 : :Chapter 11
01:18:29.914 : :Chapter 12

Статистика торрента
Раздают: 380 Качают: 28 Размер: 1.45GB Скачали: 19
Имя файла: 37125_Kristy.Random.2.torrent
Похожие торренты
Отзывы пользователей
Добавить отзыв