1.40GB / Катастрофа / Blue Ruin (2013) BDRip-AVC | iPad | A

Категория: фильмы » Триллеры
рейтинг из 5
  • Добавил: zlidny
  • Дата: 24/08/14, 13:31:07
  • Просмотры: 180
  • Отзывы: 0
?????
Название игры:
Год выхода игры:
Жанр игры: Триллеры

Название: Катастрофа
Оригинальное название: Blue Ruin
Год выхода: 2013
Жанр: триллер
Режиссер: Джереми Солнье
В ролях: Макон Блэр, Девин Рэтрей, Эми Харгривз, Кевин Колак, Ив Пламб, Дэвид В. Томпсон, , Стэйси Рок, Сидне Андерсон, Бонни Джонсон


О фильме:
Спокойная жизнь таинственного затворника переворачивается с ног на голову, когда он возвращается туда, где провел детство, желая отомстить. Он ввязывается в жестокую борьбу, чтобы защитить свою семью...



Страна: США, Франция
Студия: The Lab of Madness, Film Science

Продолжительность: 01:30:24
Перевод: Русский авторский

Файл
Кодек: H.264
Качество: BDRip-AVC [576p]
Видео: 1024x432 (2.40:1) at 23.976 fps, AVC at 2000 kbps
Звук:
1: АAС 2.0 124 kbps - Русский авторский (С. Визгунов)
2: АAС 2.0 124 kbps - Английский
Субтитры: Отсутствует
 

MI

General
Complete name : I:modoutBlue.Ruin.2013.576p.A.m4v
Format : MPEG-4
Codec ID : M4V
File size : 1.40 GiB
Duration : 1h 30mn
Overall bit rate mode : Variable
Overall bit rate : 2 218 Kbps
Movie name : Катастрофа
Performer : Jeremy Saulnier
Genre : Thriller
ContentType : Short Film
Deion : Спокойная жизнь таинственного затворника переворачивается с ног на голову, когда он возвращается туда, где провел детство, желая отомстить. Он ввязывается в жестокую борьбу, чтобы защитить свою семью…
Recorded date : UTC 2013-05-17 08:00:00
Encoded date : UTC 2014-08-24 08:53:15
Tagged date : UTC 2014-08-24 08:56:23
Copyright : The Lab of Madness, Film Science
Cover : Yes
Comment : «Revenge comes home»
ContentRating : mpaa|R|400|

Title/Sort : Blue Ruin
LongDeion : Спокойная жизнь таинственного затворника переворачивается с ног на голову, когда он возвращается туда, где провел детство, желая отомстить. Он ввязывается в жестокую борьбу, чтобы защитить свою семью…
AppleStoreCatalogID : 855090886
Vendor : Apple:vendor_id:2013-702878

Video
ID : 1
Format : AVC
Format/Info : Advanced Video Codec
Format profile : High@L4.1
Format settings, CABAC : Yes
Format settings, ReFrames : 9 frames
Codec ID : avc1
Codec ID/Info : Advanced Video Coding
Duration : 1h 30mn
Bit rate : 1 958 Kbps
Maximum bit rate : 9 228 Kbps
Width : 1 024 pixels
Height : 432 pixels
Display aspect ratio : 2.40:1
Frame rate mode : Constant
Frame rate : 23.976 fps
Color space : YUV
Chroma subsampling : 4:2:0
Bit depth : 8 bits
Scan type : Progressive
Bits/(Pixel*Frame) : 0.185
Stream size : 1.24 GiB (88%)
Title : Blue.Ruin.2013
Language : English
Encoded date : UTC 2014-08-24 08:53:15
Tagged date : UTC 2014-08-24 08:53:24

Audio #1
ID : 2
Format : AAC
Format/Info : Advanced Audio Codec
Format profile : LC
Codec ID : 40
Duration : 1h 30mn
Bit rate mode : Variable
Bit rate : 123 Kbps
Maximum bit rate : 186 Kbps
Channel(s) : 2 channels
Channel positions : Front: L R
Sampling rate : 48.0 KHz
Compression mode : Lossy
Stream size : 79.6 MiB (6%)
Title : AVO S.Vizgunov
Language : Russian
Encoded date : UTC 2014-08-24 08:48:29
Tagged date : UTC 2014-08-24 08:53:24

Audio #2
ID : 3
Format : AAC
Format/Info : Advanced Audio Codec
Format profile : LC
Codec ID : 40
Duration : 1h 30mn
Bit rate mode : Variable
Bit rate : 124 Kbps
Maximum bit rate : 184 Kbps
Channel(s) : 2 channels
Channel positions : Front: L R
Sampling rate : 48.0 KHz
Compression mode : Lossy
Stream size : 79.9 MiB (6%)
Language : English
Encoded date : UTC 2014-08-24 08:51:36
Tagged date : UTC 2014-08-24 08:53:24

Menu
ID : 4
Codec ID : text
Duration : 1h 30mn
Encoded date : UTC 2014-08-24 08:53:42
Tagged date : UTC 2014-08-24 08:53:42
Bit rate mode : CBR
iTunes tags


Sort Name: Blue Ruin
XID: Apple:vendor_id:2013-702878
Content ID: 855090886
Copyright: The Lab of Madness, Film Science
ScreenWriters: Джереми Солнье
Producers: Ричард Пит, Винсент Савино, Аниш Савджани
Director: Джереми Солнье
Cast: Макон Блэр, Девин Рэтрей, Эми Харгривз, Кевин Колак, Ив Пламб, Дэвид В. Томпсон, Brent Werzner, Стэйси Рок, Сидне Андерсон, Бонни Джонсон // Macon Blair (Dwight), Devin Ratray (Ben Gaffney), Amy Hargreaves (Sam), Kevin Kolack (Teddy Cleland), Eve Plumb (Kris Cleland), David W. Thompson (William), Brent Werzner (Carl Cleland), Stacy Rock (Hope Cleland), Sidné Anderson (Officer Eddy)
Rating: R
Long Deion: Спокойная жизнь таинственного затворника переворачивается с ног на голову, когда он возвращается туда, где провел детство, желая отомстить. Он ввязывается в жестокую борьбу, чтобы защитить свою семью…
Deion: Спокойная жизнь таинственного затворника переворачивается с ног на голову, когда он возвращается туда, где провел детство, желая отомстить. Он ввязывается в жестокую борьбу, чтобы защитить свою семью…
Release Date: 2013-05-17T08:00:00Z
Genre: Thriller
Artist: Jeremy Saulnier
Name: Катастрофа
Comments: «Revenge comes home»
 
x264

x264 [info]: frame I:825 Avg QP:15.52 size:101005
x264 [info]: frame P:29799 Avg QP:19.09 size: 26658
x264 [info]: frame B:99423 Avg QP:20.97 size: 4528
x264 [info]: consecutive B-frames: 2.7% 3.1% 12.6% 13.5% 19.7% 40.3% 5.6% 0.9% 0.8% 0.5% 0.1% 0.0% 0.0% 0.2% 0.0%
x264 [info]: mb I I16..4: 28.1% 47.4% 24.5%
x264 [info]: mb P I16..4: 0.4% 5.3% 0.9% P16..4: 27.6% 32.5% 18.4% 6.4% 2.0% skip: 6.6%
x264 [info]: mb B I16..4: 0.0% 0.4% 0.1% B16..8: 32.5% 14.8% 2.4% direct: 4.7% skip:45.2% L0:39.2% L1:45.5% BI:15.3%
x264 [info]: 8x8 transform intra:72.7% inter:48.1%
x264 [info]: coded y,uvDC,uvAC intra: 97.4% 72.8% 54.3% inter: 21.1% 14.6% 6.9%
x264 [info]: i16 v,h,dc,p: 5% 4% 53% 38%
x264 [info]: i8 v,h,dc,ddl,ddr,vr,hd,vl,hu: 9% 9% 10% 9% 13% 12% 13% 12% 13%
x264 [info]: i4 v,h,dc,ddl,ddr,vr,hd,vl,hu: 10% 10% 6% 9% 14% 13% 13% 11% 13%
x264 [info]: i8c dc,h,v,p: 39% 28% 17% 16%
x264 [info]: Weighted P-Frames: Y:4.2% UV:2.6%
x264 [info]: ref P L0: 59.4% 10.3% 12.7% 5.4% 3.9% 3.0% 2.5% 1.4% 1.3% 0.2% 0.0%
x264 [info]: ref B L0: 83.9% 6.8% 3.8% 1.8% 1.3% 1.1% 1.0% 0.4%
x264 [info]: ref B L1: 94.8% 5.2%
x264 [info]: kb/s:1958.50
Screenshots


Статистика торрента
Раздают: 366 Качают: 82 Размер: 1.40GB Скачали: 11
Имя файла: 37296_-rutor.org-Blue.torrent
Похожие торренты
Отзывы пользователей
Добавить отзыв