1.38GB / Билет в один конец (Павел Дудин) [2012, фантастика, триллер, HDRip]

Категория: фильмы » Триллеры
рейтинг из 5
  • Добавил: zlidny
  • Дата: 27/07/14, 14:34:15
  • Просмотры: 264
  • Отзывы: 0
?????
Название игры:
Год выхода игры:
Жанр игры: Фантастика, Триллеры

Формат: HDRip, AVI, XviD, AC3
Режиссер: Павел Дудин
Жанр: фантастика, триллер
Продолжительность: 01:39:43
Год выпуска: 2012
В ролях: Ирина Юсупова, Александр Хващинский, Михаил Ларионов, Сергей Холмогоров, Алиса Мелёхина, Евгений Щетинин, Настя Суворкина
Описание:
У героини фильма Ивы погибает дочь. Её сбивает машина. На похоронах Славик, друг Ивы предлагает ей увидеть дочь. Это возможно при помощи некой машины, которую изобрёл Никола Тесла — внук знаменитого Теслы. Машина может замкнуть временные кольца и тогда «ушедший» и тот, кто за ним пришёл, могут оказаться точно в том месте, где умер человек, и остановить смерть. Но у машины есть побочный эффект. Пребывая в магнитном поле, сгенерированным установкой, человек стремительно стареет. Одна минута пребывания в поле приравнивается к одному году жизни. Ива подписывает согласие на участие в «погружении»…



Видео: 720x400 (1.80:1), 25 fps, XviD MPEG-4 ~1972 kbps avg, 0.28 bit/pixel
Аудио: 48 kHz, АС3, 2 ch, ~448.00 kbps avg
 

MediaInfo

Общее
Полное имя : C:\Users\Admin\Downloads\Bilet v odin konetc_(2012)_HDRip.avi
Формат : AVI
Формат/Информация : Audio Video Interleave
Профиль формата : OpenDML
Настройки формата : rec
Размер файла : 1,38 Гбайт
Продолжительность : 1 ч. 21 м.
Общий поток : 2426 Кбит/сек
Программа кодирования : AVI-Mux GUI 1.17.8.3, Feb 16 201019:42:50

Видео
Идентификатор : 0
Формат : MPEG-4 Visual
Профиль формата : Advanced Simple@L5
Параметр BVOP формата : Нет
Параметр QPel формата : Нет
Параметр GMC формата : Без точки перехода
Параметр матрицы формата : Default (H.263)
Идентификатор кодека : XVID
Идентификатор кодека/Подсказка : XviD
Продолжительность : 1 ч. 21 м.
Битрейт : 1972 Кбит/сек
Ширина : 720 пикселей
Высота : 400 пикселей
Соотношение сторон : 16:9
Частота кадров : 25,000 кадров/сек
Цветовое пространство : YUV
Субдискретизация насыщенности : 4:2:0
Битовая глубина : 8 бит
Тип развёртки : Прогрессивная
Метод сжатия : С потерями
Бит/(Пиксели*Кадры) : 0.274
Размер потока : 1,12 Гбайт (81%)
Библиотека кодирования : XviD 62

Аудио
Идентификатор : 1
Формат : AC-3
Формат/Информация : Audio Coding 3
Расширение режима : CM (complete main)
Параметр Endianness формата : Big
Идентификатор кодека : 2000
Продолжительность : 1 ч. 21 м.
Вид битрейта : Постоянный
Битрейт : 448 Кбит/сек
Каналы : 2 канала
Расположение каналов : Front: L R
Частота : 48,0 КГц
Битовая глубина : 16 бит
Метод сжатия : С потерями
Размер потока : 260 Мбайт (18%)
Выравнивание : Соединение по промежуткам
Продолжительность промежутка : 64 мс. (1,60 видеокадра)
Время предзагрузки промежутка : 192 мс.
Заголовок : Rus(2)


скриншоты





Статистика торрента
Раздают: 258 Качают: 57 Размер: 1.38GB Скачали: 17
Имя файла: 36353_Bilet_v_odin_ko.torrent
Похожие торренты
Отзывы пользователей
Добавить отзыв