1.37GB / Темный прилив / Смертельный прилив / Dark Tide (Лука Берковичи) [1994, триллер, DVDRip]

Категория: фильмы » Триллеры
рейтинг из 5
  • Добавил: zlidny
  • Дата: 03/08/14, 22:13:13
  • Просмотры: 244
  • Отзывы: 0
?????
Название игры:
Год выхода игры:
Жанр игры: Триллеры

Перевод: Любительский [одноголосый] [ID-Daemon], субтитры: отсутствуют
Формат: DVDRip, AVI, XviD, AC3
Страна: США
Режиссер: Лука Берковичи
Жанр: триллер
Продолжительность: 01:34:30
Год выпуска: 1994

В ролях:
Крис Сарандон, Ричард Тайсон, Брижит Бако, Рес Кортес, Адриана Агоили, Эрни Ортега, Романо Васкес, Мэл Капиц, Дидо де ла Пас, Эрми Консепсьон

Описание:
Энди приезжает к своему другу Тиму на тропический остров, помочь ему ловить опасных морских змей, чтобы добыть их ценный яд. Вопиющая сексуальность Энди привлекает внимание их помощника Дака, и когда поставленная под угрозу работа отвлекает Тима, мускулистый абориген соблазняет девушку. Но когда она понимает, что совершила ошибку, Дак проявляет свой дикий нрав…



Видео: 640x480 (1.33:1), 23.976 fps, XviD build 50 ~1981 kbps avg, 0.27 bit/pixel
Аудио 1: Русский: 48 kHz, AC3 Dolby Digital, 2/0 (L,R) ch, ~192 kbps [Любительский одноголосый] [ID-Daemon];
Аудио 2: Английский: 48 kHz, AC3 Dolby Digital, 2/0 (L,R) ch, ~192 kbps [Оригинал]
 

Комментарий переводчика

"В других источниках фильм также упоминается под названиями "Черный прилив", "Смертельный прилив". В сценах изнасилования и т.п. я перевел не все фразы, в художественных целях. Думаю все и так поймут, что примерно означает "Fucking asshole"".
MI

General
Complete name : E:\Фильмы\Темный прилив.1994.VO+ENG.[tfile.ru].avi
Format : AVI
Format/Info : Audio Video Interleave
File size : 1.57 GiB
Duration : 1h 34mn
Overall bit rate : 2 381 Kbps
Writing application : VirtualDubMod 1.5.10.3 (build 2550/release)
Writing library : VirtualDubMod build 2550/release

Video
ID : 0
Format : MPEG-4 Visual
Format profile : Advanced Simple@L5
Format settings, BVOP : 2
Format settings, QPel : No
Format settings, GMC : No warppoints
Format settings, Matrix : Default (H.263)
Codec ID : XVID
Codec ID/Hint : XviD
Duration : 1h 34mn
Bit rate : 1 982 Kbps
Width : 640 pixels
Height : 480 pixels
Display aspect ratio : 4:3
Frame rate : 23.976 fps
Color space : YUV
Chroma subsampling : 4:2:0
Bit depth : 8 bits
Scan type : Progressive
Compression mode : Lossy
Bits/(Pixel*Frame) : 0.269
Stream size : 1.31 GiB (83%)
Writing library : XviD 1.2.1 (UTC 2008-12-04)

Audio #1
ID : 1
Format : AC-3
Format/Info : Audio Coding 3
Mode extension : CM (complete main)
Codec ID : 2000
Duration : 1h 34mn
Bit rate mode : Constant
Bit rate : 192 Kbps
Channel(s) : 2 channels
Channel positions : Front: L R
Sampling rate : 48.0 KHz
Bit depth : 16 bits
Compression mode : Lossy
Stream size : 130 MiB (8%)
Alignment : Split accross interleaves
Interleave, duration : 42 ms (1.00 video frame)
Interleave, preload duration : 500 ms

Audio #2
ID : 2
Format : AC-3
Format/Info : Audio Coding 3
Mode extension : CM (complete main)
Codec ID : 2000
Duration : 1h 34mn
Bit rate mode : Constant
Bit rate : 192 Kbps
Channel(s) : 2 channels
Channel positions : Front: L R
Sampling rate : 48.0 KHz
Bit depth : 16 bits
Compression mode : Lossy
Stream size : 130 MiB (8%)
Alignment : Split accross interleaves
Interleave, duration : 42 ms (1.00 video frame)
Interleave, preload duration : 500 ms

скриншоты










Статистика торрента
Раздают: 192 Качают: 5 Размер: 1.37GB Скачали: 10
Имя файла: 36626_Temnyj_priliv.1.torrent
Похожие торренты
Отзывы пользователей
Добавить отзыв