1.37GB / Внеземной / ETXR (2014) WEB-DLRip-AVC | L2

Категория: фильмы » Приключения
рейтинг из 5
  • Добавил: zlidny
  • Дата: 06/09/14, 20:07:34
  • Просмотры: 171
  • Отзывы: 0
?????
Название игры:
Год выхода игры:
Жанр игры: Фантастика, Приключения

Название: Внеземной
Оригинальное название: ETXR
Год выхода: 2014
Жанр: Фантастика, приключения, музыка
Режиссер: Тревор Сэндс
В ролях: Калеб Хант, Джереми Люк, Леви Филер, Брайан Хоуи, Линдси Морган, Ксандер Беркли, Дэн Донохью, Питер Дуглас, Брендан Хант, Мэтт Нолан

О фильме:
Невероятный прорыв в музыке совершает DJ Жучок Бикскто. Для этого он использует инструмент, который изобрел еще Никола Тесла. Teсласкоп обладает удивительным свойством — способностью обмениваться сигналом с другими мирами. Этот уникальный аппарат невероятным образом преобразовывает музыку, которая буквально гипнотизирует людей…




Страна: США
Студия: Fox Digital Studios
Продолжительность: 01:17:54
Перевод: Любительский (двухголосый закадровый) HamsterStudio

Файл
Кодек: AVC
Качество: WEBDLRip-AVC
Видео: 864x480 (16:9), 2129 kbps, 23,976 fps, 0,214 Bits/(Pixel*Frame)
Звук:
AC3, 48 kHz, 2 ch, 192 kbps - russian
AC3, 48 kHz, 2 ch, 192 kbps - english
Субтитры: Русские, английские

Релиз от:

Автор рипа: _Bathory_

 

Скриншоты


 

MI
General
Unique ID : 207521920556399905891650092013899752868 (0x9C1F44A1A7379EB09C1F9CCB737C25A4)
Complete name : D:extr.2014.web-dlrip-avc_by_Bathory.mkv
Format : Matroska
Format version : Version 4 / Version 2
File size : 1.37 GiB
Duration : 1h 17mn
Overall bit rate : 2 515 Kbps
Encoded date : UTC 2014-09-06 15:31:59
Writing application : mkvmerge v7.1.0 ('Good Love') 64bit built on Jul 27 2014 13:06:55
Writing library : libebml v1.3.0 + libmatroska v1.4.1
_STATISTICS_WRITING_APP : mkvmerge v7.1.0 ('Good Love') 64bit built on Jul 27 2014 13:06:55
_STATISTICS_WRITING_DATE_UTC : 2014-09-06 15:31:59
_STATISTICS_TAGS : BPS DURATION NUMBER_OF_FRAMES NUMBER_OF_BYTES
DURATION : 01:16:34.455000000
NUMBER_OF_FRAMES : 1065
NUMBER_OF_BYTES : 42435

Video
ID : 1
Format : AVC
Format/Info : Advanced Video Codec
Format profile : High@L4.1
Format settings, CABAC : Yes
Format settings, ReFrames : 11 frames
Codec ID : V_MPEG4/ISO/AVC
Duration : 1h 17mn
Bit rate : 2 129 Kbps
Width : 864 pixels
Height : 480 pixels
Display aspect ratio : 16:9
Frame rate mode : Constant
Frame rate : 23.976 fps
Color space : YUV
Chroma subsampling : 4:2:0
Bit depth : 8 bits
Scan type : Progressive
Bits/(Pixel*Frame) : 0.214
Stream size : 1.13 GiB (83%)
Writing library : x264 core 142 r2453 ea0ca51
Encoding settings : cabac=1 / ref=11 / deblock=1:-2:-1 / analyse=0x3:0x133 / me=umh / subme=11 / psy=1 / psy_rd=1.00:0.00 / mixed_ref=1 / me_range=32 / chroma_me=1 / trellis=2 / 8x8dct=1 / cqm=0 / deadzone=21,11 / fast_pskip=0 / chroma_qp_offset=-2 / threads=12 / lookahead_threads=3 / sliced_threads=0 / nr=0 / decimate=1 / interlaced=0 / bluray_compat=0 / constrained_intra=0 / bframes=16 / b_pyramid=2 / b_adapt=2 / b_bias=0 / direct=3 / weightb=1 / open_gop=0 / weightp=2 / keyint=240 / keyint_min=23 / scenecut=40 / intra_refresh=0 / rc_lookahead=60 / rc=2pass / mbtree=1 / bitrate=2129 / ratetol=1.0 / qcomp=0.60 / qpmin=0 / qpmax=69 / qpstep=4 / cplxblur=20.0 / qblur=0.5 / vbv_maxrate=62500 / vbv_bufsize=78125 / nal_hrd=none / filler=0 / ip_ratio=1.40 / aq=1:1.00
Default : Yes
Forced : No

Audio #1
ID : 2
Format : AC-3
Format/Info : Audio Coding 3
Mode extension : CM (complete main)
Format settings, Endianness : Big
Codec ID : A_AC3
Duration : 1h 17mn
Bit rate mode : Constant
Bit rate : 192 Kbps
Channel(s) : 2 channels
Channel positions : Front: L R
Sampling rate : 48.0 KHz
Bit depth : 16 bits
Compression mode : Lossy
Stream size : 107 MiB (8%)
Language : Russian
Default : Yes
Forced : No

Audio #2
ID : 3
Format : AC-3
Format/Info : Audio Coding 3
Mode extension : CM (complete main)
Format settings, Endianness : Big
Codec ID : A_AC3
Duration : 1h 17mn
Bit rate mode : Constant
Bit rate : 192 Kbps
Channel(s) : 2 channels
Channel positions : Front: L R
Sampling rate : 48.0 KHz
Bit depth : 16 bits
Compression mode : Lossy
Stream size : 107 MiB (8%)
Language : English
Default : No
Forced : No

Text #1
ID : 4
Format : UTF-8
Codec ID : S_TEXT/UTF8
Codec ID/Info : UTF-8 Plain Text
Title : russian
Language : Russian
Default : Yes
Forced : No

Text #2
ID : 5
Format : UTF-8
Codec ID : S_TEXT/UTF8
Codec ID/Info : UTF-8 Plain Text
Title : english
Language : English
Default : No
Forced : No

Menu
00:00:00.000 : en:An Opportunity from the Past
00:11:28.000 : en:The Scope
00:21:18.000 : en:Play It Again
00:29:16.000 : en:The Offer
00:36:15.000 : en:They Arrive
00:45:55.000 : en:A Dream Within a Dream
00:52:57.000 : en:Journey to the Desert
01:03:47.000 : en:The Completion
01:14:57.000 : en:End Credits

Статистика торрента
Раздают: 257 Качают: 14 Размер: 1.37GB Скачали: 17
Имя файла: 37454_-rutor.org-extr.torrent
Похожие торренты
Отзывы пользователей
Добавить отзыв