5.46GB / Santana - Corazon: Live from Mexico - Live It To Believe It (2014) BDRip 720p

рейтинг из 5
  • Добавил: zlidny
  • Дата: 01/10/14, 14:13:01
  • Просмотры: 422
  • Отзывы: 0
?????
Название игры:
Год выхода игры:
Жанр игры: Музыкальное видео

Жанр: LatinRock, BluesRock
Продолжительность: 02:13:21
Год выпуска: 2014


01. Our Prayer
02. Jingo
03. Iron Lion Zion feat. ChocQuibTown and Elan Atias
04. La Flaca feat. Juanes
05. Black Magic Woman
06. Gypsy Queen
07. Oye Como Va
08. Samba Pa Ti
09. Amor Correspondido feat. Diego Torres
10. Margarita feat. Romeo Santos
11. Indy feat. Miguel
12. Maria Maria feat. Miguel
13. Evil Ways
14. Europa
15. Una Noche en Napoles feat. Lila Downs, Nina Pastori & Soledad
16. Besos De Lejos feat. Gloria Estefan
17. Kyoto, November 5, 1976, Part 1 as performed by Salvador Santana
18. Corazon Espinado feat. Fher Olvera and Cindy Blackman Santana
19. Cindy Blackman Santana Drum and Benny Bass Solo
20. Smooth
21. Soul Sacrifice
22. Saideira feat. Samuel Rosa
23. Cielito Lindo/Descarga Divine Explosion

Качество: BDRip 720p
Контейнер: MKV
Видео кодек: H.264
Аудио кодек: DTS
Видео: MPEG4 Video (H264) 1280x640 23.976fps 4350Kbps
Аудио: DTS 48000Hz 6ch 1509Kbps

Media Info
General
Unique ID : 225247987210837755739855232864100110766 (0xA9752F3172155186BE5D6DAE757951AE)
Complete name : C:Usersmeloman67DesktopSantana.Corazon.Live.From.Mexico.2013.720p.MBluRay.x264-TREBLE.mkv
Format : Matroska
Format version : Version 4 / Version 2
File size : 5.46 GiB
Duration : 2h 13mn
Overall bit rate : 5 861 Kbps
Encoded date : UTC 2014-09-12 07:49:15
Writing application : mkvmerge v7.1.0 ('Good Love') 32bit built on Jul 27 2014 12:59:18
Writing library : libebml v1.3.0 + libmatroska v1.4.1

Video
ID : 1
Format : AVC
Format/Info : Advanced Video Codec
Format profile : High@L4.1
Format settings, CABAC : Yes
Format settings, ReFrames : 5 frames
Codec ID : V_MPEG4/ISO/AVC
Duration : 2h 13mn
Bit rate : 4 350 Kbps
Width : 1 280 pixels
Height : 640 pixels
Display aspect ratio : 2.000
Frame rate mode : Constant
Frame rate : 23.976 fps
Color space : YUV
Chroma subsampling : 4:2:0
Bit depth : 8 bits
Scan type : Progressive
Bits/(Pixel*Frame) : 0.221
Stream size : 3.95 GiB (72%)
Title : English
Writing library : x264 core 142 r2479 dd79a61
Encoding settings : cabac=1 / ref=5 / deblock=1:0:0 / analyse=0x3:0x113 /
me=umh / subme=8 / psy=1 / psy_rd=1.00:0.00 / mixed_ref=1 / me_range=16 /
chroma_me=1 / trellis=1 / 8x8dct=1 / cqm=0 / deadzone=21,11 / fast_pskip=1 /
chroma_qp_offset=-2 / threads=6 / lookahead_threads=1 / sliced_threads=0 /
nr=0 / decimate=1 / interlaced=0 / bluray_compat=0 / constrained_intra=0 /
bframes=3 / b_pyramid=2 / b_adapt=2 / b_bias=0 / direct=3 / weightb=1 /
open_gop=0 / weightp=2 / keyint=240 / keyint_min=24 / scenecut=40 /
intra_refresh=0 / rc_lookahead=50 / rc=2pass / mbtree=1 / bitrate=4350 /
ratetol=1.0 / qcomp=0.60 / qpmin=0 / qpmax=69 / qpstep=4 /
cplxblur=20.0 / qblur=0.5 / ip_ratio=1.40 / aq=1:1.00
Language : English
Default : Yes
Forced : No

Audio
ID : 2
Format : DTS
Format/Info : Digital Theater Systems
Mode : 16
Format settings, Endianness : Big
Codec ID : A_DTS
Duration : 2h 13mn
Bit rate mode : Constant
Bit rate : 1 509 Kbps
Channel(s) : 6 channels
Channel positions : Front: L C R, Side: L R, LFE
Sampling rate : 48.0 KHz
Bit depth : 24 bits
Compression mode : Lossy
Stream size : 1.41 GiB (26%)
Title : English
Language : English
Default : Yes
Forced : No

Menu
00:00:00.000 : en:00:00:00.000
00:01:07.776 : en:00:01:07.776
00:05:43.885 : en:00:05:43.885
00:13:03.199 : en:00:13:03.199
00:19:05.478 : en:00:19:05.478
00:24:54.993 : en:00:24:54.993
00:28:49.770 : en:00:28:49.770
00:32:04.464 : en:00:32:04.464
00:36:57.966 : en:00:36:57.966
00:42:49.817 : en:00:42:49.817
00:47:24.216 : en:00:47:24.216
00:53:19.655 : en:00:53:19.655
00:58:08.902 : en:00:58:08.902
01:05:07.862 : en:01:05:07.862
01:11:02.383 : en:01:11:02.383
01:15:32.194 : en:01:15:32.194
01:21:48.070 : en:01:21:48.070
01:28:17.876 : en:01:28:17.876
01:30:44.773 : en:01:30:44.773
01:36:12.266 : en:01:36:12.266
01:40:57.718 : en:01:40:57.718
01:45:42.044 : en:01:45:42.044
01:52:01.757 : en:01:52:01.757
02:04:15.531 : en:02:04:15.531
02:10:41.584 : en:02:10:41.584

 

Скриншоты

Статистика торрента
Раздают: 374 Качают: 32 Размер: 5.46GB Скачали: 32
Имя файла: 38108_-rutor.org-Sant.torrent
Похожие торренты
Отзывы пользователей
Добавить отзыв