6.53GB / Будни аэропорта [01-78] (2014) WEBRip

Категория: фильмы » Мультфильмы
рейтинг из 5
  • Добавил: zlidny
  • Дата: 01/10/14, 14:36:11
  • Просмотры: 365
  • Отзывы: 0
?????
Название игры:
Год выхода игры:
Жанр игры: Мультфильмы

Название: Будни аэропорта
Год выхода: 2014
Жанр: Мультсериал, познавательный, детский

О фильме:
Влиться в новый коллектив и найти себе там друзей бывает совсем не просто. С этим столкнулся наш главный герой - юный самолётик Винки, который покинул родной дом, чтобы впервые начать самостоятельно работать. Он прибывает в большой аэропорт Манго, где сразу сталкивается с проблемами новичка. Здесь всё такое незнакомое и непривычное, что поначалу Винки не смог даже толком приземлится на взлётную полосу. Более того, другие самолёты оказались не очень приветливы, однако нашлись и те, кто был рад помочь новому сотруднику и вскоре у Винки появились первые друзья.

Содержание
01. Винки прибывает!
02. Новый дом Винки
03. Я мечтаю облететь весь мир!
04. Урок для Тайфуна
05. Любовь на крыльях Или
06. Наш новый друг Эмили
07. Винки и звезда
08. Мой новый знакомый спутник
09. Винки и небесные маяки
10. Или и сердце
11. Тучка - заклинатель дождя
12. Винки и Эмили в поисках приключений
13. Птица в аэропорту
14. Цветочная клумба Лавеве
15. Мои наставники фонарики
16. Соблюдай правила, Тайфун!
17. Планер - парящий малыш
18. Плавучий остров
19. Легендарный самолет
20. Дельфиненок возвращается домой
21. Тайфун и попугай
22. Опасные мелочи
23. Винки родился!
24. Как мы спаслись от жары
25. Замечательные друзья
26. Блинк наводит блеск
27. Малышка Чо-Чо
28. Тайфун и Лавеве
29. Игра для Джи Пи Ю
30. Страшные-страшные молнии
31. Поймать вора
32. Двое вместе!
33. Происшествие с Джи Пи Ю
34. Гордость аэропорта Манго
35. Песенка для Лон-Лона
36. Как перехитрить время
37. Лучшее шоу на свете
38. Пожарный переполох
39. Гугу - хранитель картин
40. Лучшая команда в мире
41. Бонита и букет цветов
42. Маскарад
43. Экзамен по безопасной езде
44. Тягач и Линда
45. Поезд Ту-Ту
46. Трудный день Мико
47. Извержение вулкана
48. Остров Черепаха
49. Титан и Винки
50. Вот так находка!
51. Смелее, Пол!
52. Песенка Бена
53. Не будь жадиной, Тайфун
54. Фермер - упрямый самолёт
55. Гугу кинозвезда
56. Залп в честь победителя
57. Чудо-полоса
58. Ходят слухи
59. Люка - самолет-трансформер
60. Фестиваль ледяных скульптур
61. Лети, Винки!
62. Падает, падает снег
63. Перепутанный груз
64. Винки летит в гости к дедушке
65. Вирус не пройдёт
66. Гугу подменили
67. Летающий дельфин
68. Гугу уходит в отпуск
69. Чудесное преображение Или
70. Винки на Севере
71. Все на пикник
72. Фонарики летят в пустыню
73. Винки в новом аэропорту
74. Не бойся, Куку
75. Трудный выбор Тайфуна
76. Бэн заболел
77. Через Тихий океан
78. Мой дорогой друг



Страна: Россия
Студия: Теремок ТВ
Продолжительность: ~ 00:08:00 серия
Перевод: Не требуется

Файл
Кодек: XviD / AC3
Качество: WEBRip
Видео: MPEG4, XviD, 720x400 (16:9), 25.000 fps, 1 200 Kbps (0.167 bit/pixel)
Звук: AC-3, 48.0 KHz, 2 ch, 192 Kbps, CBR
 

Скриншоты
 
MediaInfo
General
Complete name : /Будни аэропорта.2014.Xvid.-merci/01. Винки прибывает!.Xvid.avi
Format : AVI
Format/Info : Audio Video Interleave
File size : 86.1 MiB
Duration : 8mn 35s
Overall bit rate : 1 402 Kbps
Writing application : VirtualDubMod 1.5.10.3 | www.virtualdub-fr.org || (build 2550/release)
Writing library : VirtualDubMod build 2550/release

Video
ID : 0
Format : MPEG-4 Visual
Format profile : Advanced Simple@L5
Format settings, BVOP : 2
Format settings, QPel : No
Format settings, GMC : No warppoints
Format settings, Matrix : Default (MPEG)
Codec ID : XVID
Codec ID/Hint : XviD
Duration : 8mn 35s
Bit rate : 1 200 Kbps
Width : 720 pixels
Height : 400 pixels
Display aspect ratio : 16:9
Frame rate : 25.000 fps
Color space : YUV
Chroma subsampling : 4:2:0
Bit depth : 8 bits
Scan type : Progressive
Compression mode : Lossy
Bits/(Pixel*Frame) : 0.167
Stream size : 73.7 MiB (86%)
Writing library : XviD 73

Audio
ID : 1
Format : AC-3
Format/Info : Audio Coding 3
Mode extension : CM (complete main)
Format settings, Endianness : Big
Codec ID : 2000
Duration : 8mn 35s
Bit rate mode : Constant
Bit rate : 192 Kbps
Channel(s) : 2 channels
Channel positions : Front: L R
Sampling rate : 48.0 KHz
Bit depth : 16 bits
Compression mode : Lossy
Stream size : 11.8 MiB (14%)
Alignment : Split accross interleaves
Interleave, duration : 40 ms (1.00 video frame)
Interleave, preload duration : 500 ms

Статистика торрента
Раздают: 211 Качают: 90 Размер: 6.53GB Скачали: 28
Имя файла: 38111_-rutor.org-aero.torrent
Похожие торренты
Отзывы пользователей
Добавить отзыв