3.45GB / Бременские музыканты (Сборник мультфильмов) (Инесса Ковалевская) [1967-1981, мультфильм, короткометражка, мюзикл, фэнтези, семейный

Категория: фильмы » Мультфильмы
рейтинг из 5
  • Добавил: zlidny
  • Дата: 14/09/14, 22:29:20
  • Просмотры: 457
  • Отзывы: 0
?????
Название игры:
Год выхода игры:
Жанр игры: Мультфильмы

Перевод: Не требуется, cубтитры: отсутствуют
Формат: BDRip, MKV, H.264, AC3
Страна: СССР
Режиссер: Инесса Ковалевская
Жанр: мультфильм, короткометражка, мюзикл, фэнтези, семейный
Продолжительность: 2 x ~ 00:20:00~ 3-5 00:09:00
Год выпуска: 1967-1981
В ролях: Олег Анофриев, Муслим Магомаев, Эльмира Жерздева, Анатолий Горохов, Геннадий Гладков, Леонид Бергер

Описание: Музыкальная фантазия, любимая не одним поколением зрителей, о необыкновенных, очень опасных и веселых приключениях бременских музыкантов: Трубадура, кота, собаки, петуха и осла. Музыканты путешествуют по Германии времен братьев Гримм и поют вполне современные песни. Время от времени совершают подвиги. Все было хорошо, но во время одного циркового представления приглянулась нашему герою принцесса…



Видео: 992х720р (1,378), 25,000 fps, AVC (х264), High@L4.1 , ~ 7399 kbps avg, 0.414 bit/pixel
Аудио: 48.0 kHz, AC3, (Front: L C R, Side: L R, LFE) , 6 ch ~448Kbps avg
 

Mediainfo
Общее
Уникальный идентификатор : 174971635980052063072874516751072802971 (0x83A24FB25B08D7A386F927DA7B52B89B)
Полное имя : C:\Bremenskie.muzykanty.Sbornik.multfilmov.1967-1981.x264.BDRip.720p.Trottor\1.Bremenskie.muzykanty.1969.x264.BDRip.720p.mkv
Формат : Matroska
Версия формата : Version 2
Размер файла : 1,13 Гбайт
Продолжительность : 20 м.
Общий поток : 7848 Кбит/сек
Название фильма : Бременские музыканты (1969)
Дата кодирования : UTC 2011-12-16 18:52:05
Программа кодирования : mkvmerge v5.0.1 ('Es ist Sommer') built on Nov 6 2011 16:23:40
Библиотека кодирования : libebml v1.2.2 + libmatroska v1.3.0

Видео
Идентификатор : 1
Формат : AVC
Формат/Информация : Advanced Video Codec
Профиль формата : High@L4.1
Параметр CABAC формата : Да
Параметр ReFrames формата : 8 кадров
Идентификатор кодека : V_MPEG4/ISO/AVC
Продолжительность : 20 м.
Битрейт : 7399 Кбит/сек
Ширина : 992 пикселя
Высота : 720 пикселей
Соотношение сторон : 1,378
Режим частоты кадров : Постоянный
Частота кадров : 25,000 кадров/сек
Цветовое пространство : YUV
Субдискретизация насыщенности : 4:2:0
Битовая глубина : 8 бит
Тип развёртки : Прогрессивная
Бит/(Пиксели*Кадры) : 0.414
Размер потока : 1,04 Гбайт (92%)
Заголовок : Бременские музыканты (1969)
Библиотека кодирования : x264 core 120 r2120 0c7dab9
Настройки программы : cabac=1 / ref=8 / deblock=1:-1:-1 / analyse=0x3:0x113 / me=umh / subme=10 / psy=1 / psy_rd=1.00:0.20 / mixed_ref=1 / me_range=32 / chroma_me=1 / trellis=2 / 8x8dct=1 / cqm=0 / deadzone=21,11 / fast_pskip=0 / chroma_qp_offset=-3 / threads=12 / sliced_threads=0 / nr=0 / decimate=0 / interlaced=0 / bluray_compat=0 / constrained_intra=0 / bframes=6 / b_pyramid=2 / b_adapt=2 / b_bias=0 / direct=3 / weightb=1 / open_gop=0 / weightp=2 / keyint=250 / keyint_min=25 / scenecut=40 / intra_refresh=0 / rc_lookahead=40 / rc=2pass / mbtree=0 / bitrate=7399 / ratetol=1.0 / qcomp=0.60 / qpmin=0 / qpmax=69 / qpstep=4 / cplxblur=20.0 / qblur=0.5 / vbv_maxrate=50000 / vbv_bufsize=50000 / nal_hrd=none / ip_ratio=1.40 / pb_ratio=1.30 / aq=1:1.00
Язык : Russian
Default : Да
Forced : Нет

Аудио
Идентификатор : 2
Формат : AC-3
Формат/Информация : Audio Coding 3
Расширение режима : CM (complete main)
Параметр Endianness формата : Big
Идентификатор кодека : A_AC3
Продолжительность : 20 м.
Вид битрейта : Постоянный
Битрейт : 448 Кбит/сек
Каналы : 6 каналов
Расположение каналов : Front: L C R, Side: L R, LFE
Частота : 48,0 КГц
Битовая глубина : 16 бит
Метод сжатия : С потерями
Размер потока : 65,8 Мбайт (6%)
Язык : Russian
Default : Да
Forced : Нет
Сборник мультфильмов

1. Бременские музыканты (1969)
2. По следам Бременских музыкантов (1973)
3. Катерок (1970)
4. Четверо с одного двора (1967)
5. Однажды утром (1981)

Статистика торрента
Раздают: 155 Качают: 101 Размер: 3.45GB Скачали: 25
Имя файла: 37715_Bremenskie_muzy.torrent
Похожие торренты
Отзывы пользователей
Добавить отзыв