2.18GB / Король сафари / Кумба / Khumba (2013) BDRip-AVC от New-Team | D | лицензия

Категория: фильмы » Мультфильмы
рейтинг из 5
  • Добавил: zlidny
  • Дата: 06/09/14, 19:58:38
  • Просмотры: 252
  • Отзывы: 0
?????
Название игры:
Год выхода игры:
Жанр игры: Мультфильмы

Страна: ЮАР / Triggerfish Animation

Жанр: мультфильм, приключения, семейный, комедия
Год выпуска: 2013
Продолжительность: 01:25:18

Перевод: Профессиональный (дублированный)
Cубтитры: английский
Оригинальная аудиодорожка: английский

Режиссер: Энтони Силверстон / Anthony Silverston

В ролях: Джейк Т. Остин, Стив Бушеми, Лоретта Дивайн, Лоренс Фишбёрн, Ричард Э. Грант, Аника Нони Роуз, Анна-София Робб, Кэтрин Тейт, Лиам Нисон, Чарльз Адлер...

Роли дублировали: Оскар Кучера

Описание: Зебра Кумба с самого рождения был посмешищем всего стада из-за того, что родился наполовину полосатым, а наполовину белым. Хуже того, когда началась Великая Засуха, сородичи решили, что он проклят, и в нем причина всех бед. Стадо изгнало Кумбу, и даже отец отвернулся от него! Отважная полуполосатая зебра отправляется в опасные и веселые приключения, чтобы найти недостающие полоски и заслужить уважение семьи…



Качество: BDRip-AVC / DVD5 R5 - лицензионный диск от CD Land + KHUMBA_3D_NNMCLUB.iso
Формат: MKV

Видео: 1024x424 (2.40:1), MPEG-4 AVC ~2755 Кбит/с, 23.976 fps, 0.265 bit/pix
Аудио 1: AC3 5.1, 448 kbps, 48 kHz [Русский - дублированный]
Аудио 2: AC3 5.1, 448 kbps, 48 kHz [Английский - оригинал]
Формат субтитров: SoftSub (srt)

Дополнительно: Фильм разбит на главы, как на оригинальном Blu-ray диске.

Раздача от:

MediaInfo

Общее
Полное имя : Korol.safari.2013.D.BDRip-AVC_[New-Team]_by_avproh.mkv
Формат : Matroska
Версия формата : Version 4 / Version 2
Размер файла : 2,18 Гбайт
Продолжительность : 1 ч. 25 м.
Общий поток : 3653 Кбит/сек
Дата кодирования : UTC 2014-09-06 13:55:19
Программа кодирования : mkvmerge v7.1.0 ('Good Love') 64bit built on Jul 27 2014 13:06:55
Библиотека кодирования : libebml v1.3.0 + libmatroska v1.4.1
DURATION : 01:25:18.176000000
NUMBER_OF_FRAMES : 159943
NUMBER_OF_BYTES : 286617856
_STATISTICS_WRITING_APP : mkvmerge v7.1.0 ('Good Love') 64bit built on Jul 27 2014 13:06:55
_STATISTICS_WRITING_DATE_UTC : 2014-09-06 13:55:19
_STATISTICS_TAGS : BPS DURATION NUMBER_OF_FRAMES NUMBER_OF_BYTES

Видео
Идентификатор : 1
Формат : AVC
Формат/Информация : Advanced Video Codec
Профиль формата : High@L4.1
Параметр CABAC формата : Да
Параметр ReFrames формата : 8 кадров
Идентификатор кодека : V_MPEG4/ISO/AVC
Продолжительность : 1 ч. 25 м.
Битрейт : 2755 Кбит/сек
Ширина : 1024 пикселя
Высота : 424 пикселя
Соотношение сторон : 2,40:1
Режим частоты кадров : Постоянный
Частота кадров : 23,976 кадра/сек
Цветовое пространство : YUV
Субдискретизация насыщенности : 4:2:0
Битовая глубина : 8 бит
Тип развёртки : Прогрессивная
Бит/(Пиксели*Кадры) : 0.265
Размер потока : 1,60 Гбайт (73%)
Библиотека кодирования : x264 core 130 r2273 b3065e6
Настройки программы : cabac=1 / ref=8 / deblock=1:-3:-2 / analyse=0x3:0x113 / me=umh / subme=10 / psy=1 / psy_rd=1.00:0.05 / mixed_ref=1 / me_range=32 / chroma_me=1 / trellis=2 / 8x8dct=1 / cqm=0 / deadzone=21,11 / fast_pskip=0 / chroma_qp_offset=-3 / threads=9 / lookahead_threads=1 / sliced_threads=0 / nr=0 / decimate=0 / interlaced=0 / bluray_compat=0 / constrained_intra=0 / bframes=8 / b_pyramid=2 / b_adapt=2 / b_bias=0 / direct=3 / weightb=1 / open_gop=0 / weightp=2 / keyint=240 / keyint_min=24 / scenecut=40 / intra_refresh=0 / rc_lookahead=40 / rc=2pass / mbtree=1 / bitrate=2755 / ratetol=1.0 / qcomp=0.60 / qpmin=0 / qpmax=69 / qpstep=4 / cplxblur=20.0 / qblur=0.5 / ip_ratio=1.40 / aq=1:1.00
Язык : English
Default : Да
Forced : Нет
DURATION : 01:25:18.113000000
NUMBER_OF_FRAMES : 122712
NUMBER_OF_BYTES : 1762433398
_STATISTICS_WRITING_APP : mkvmerge v7.1.0 ('Good Love') 64bit built on Jul 27 2014 13:06:55
_STATISTICS_WRITING_DATE_UTC : 2014-09-06 13:55:19
_STATISTICS_TAGS : BPS DURATION NUMBER_OF_FRAMES NUMBER_OF_BYTES

Аудио #1
Идентификатор : 2
Формат : AC-3
Формат/Информация : Audio Coding 3
Расширение режима : CM (complete main)
Параметр Endianness формата : Big
Идентификатор кодека : A_AC3
Продолжительность : 1 ч. 25 м.
Вид битрейта : Постоянный
Битрейт : 448 Кбит/сек
Каналы : 6 каналов
Расположение каналов : Front: L C R, Side: L R, LFE
Частота : 48,0 КГц
Битовая глубина : 16 бит
Метод сжатия : С потерями
Размер потока : 273 Мбайт (12%)
Заголовок : DUB
Язык : Russian
Default : Да
Forced : Нет

Аудио #2
Идентификатор : 3
Формат : AC-3
Формат/Информация : Audio Coding 3
Расширение режима : CM (complete main)
Параметр Endianness формата : Big
Идентификатор кодека : A_AC3
Продолжительность : 1 ч. 25 м.
Вид битрейта : Постоянный
Битрейт : 448 Кбит/сек
Каналы : 6 каналов
Расположение каналов : Front: L C R, Side: L R, LFE
Частота : 48,0 КГц
Битовая глубина : 16 бит
Метод сжатия : С потерями
Размер потока : 273 Мбайт (12%)
Язык : English
Default : Нет
Forced : Нет

Текст
Идентификатор : 4
Формат : UTF-8
Идентификатор кодека : S_TEXT/UTF8
Идентификатор кодека/Информация : UTF-8 Plain Text
Заголовок : English
Язык : English
Default : Нет
Forced : Нет

Меню
00:00:00.000 : en:00:00:00.000
00:07:02.881 : en:00:07:02.881
00:14:33.623 : en:00:14:33.623
00:24:04.485 : en:00:24:04.485
00:30:51.933 : en:00:30:51.933
00:38:02.489 : en:00:38:02.489
00:45:18.507 : en:00:45:18.507
00:50:56.345 : en:00:50:56.345
00:55:26.865 : en:00:55:26.865
01:00:10.857 : en:01:00:10.857
01:09:02.305 : en:01:09:02.305
01:19:12.790 : en:01:19:12.790

 

Скриншоты:



Статистика торрента
Раздают: 362 Качают: 118 Размер: 2.18GB Скачали: 15
Имя файла: 37453_-rutor.org-Koro.torrent
Похожие торренты
Отзывы пользователей
Добавить отзыв