1.46GB / Король сафари / Кумба / Khumba (2013) BDRip от New-Team | D | лицензия

Категория: фильмы » Мультфильмы
рейтинг из 5
  • Добавил: zlidny
  • Дата: 06/09/14, 20:17:46
  • Просмотры: 201
  • Отзывы: 0
?????
Название игры:
Год выхода игры:
Жанр игры: Мультфильмы

Страна: ЮАР / Triggerfish Animation

Жанр: мультфильм, приключения, семейный, комедия
Год выпуска: 2013
Продолжительность: 01:25:18

Перевод: Профессиональный (дублированный)
Cубтитры: нет
Оригинальная аудиодорожка: нет

Режиссер: Энтони Силверстон / Anthony Silverston

В ролях: Джейк Т. Остин, Стив Бушеми, Лоретта Дивайн, Лоренс Фишбёрн, Ричард Э. Грант, Аника Нони Роуз, Анна-София Робб, Кэтрин Тейт, Лиам Нисон, Чарльз Адлер...

Роли дублировали: Оскар Кучера

Описание: Зебра Кумба с самого рождения был посмешищем всего стада из-за того, что родился наполовину полосатым, а наполовину белым. Хуже того, когда началась Великая Засуха, сородичи решили, что он проклят, и в нем причина всех бед. Стадо изгнало Кумбу, и даже отец отвернулся от него! Отважная полуполосатая зебра отправляется в опасные и веселые приключения, чтобы найти недостающие полоски и заслужить уважение семьи…



Качество: BDRip / DVD5 R5 от CD Land + KHUMBA_3D_NNMCLUB.iso
Формат: AVI

Видео: 720x304 (2.35:1), XviD, 1987 Кбит/с, 24,000 fps / 0.379 bit/pix
Аудио: Dolby Digital Audio Russian 448 kbps 5.1 / 48 kHz / 448 kbps / DN -4dB

Раздача от:

MediaInfo

Общее
Полное имя : Korol.safari.2013.D.BDRip_[New-Team]_by_avproh.avi
Формат : AVI
Формат/Информация : Audio Video Interleave
Размер файла : 1,46 Гбайт
Продолжительность : 1 ч. 25 м.
Общий поток : 2445 Кбит/сек
Программа кодирования : VirtualDubModRus 1.5.10.2 (build 2542/release)
Библиотека кодирования : VirtualDubMod build 2542/release

Видео
Идентификатор : 0
Формат : MPEG-4 Visual
Профиль формата : Advanced Simple@L5
Параметр BVOP формата : 1
Параметр QPel формата : Нет
Параметр GMC формата : Без точки перехода
Параметр матрицы формата : Выборочная
Идентификатор кодека : XVID
Идентификатор кодека/Подсказка : XviD
Продолжительность : 1 ч. 25 м.
Битрейт : 1987 Кбит/сек
Ширина : 720 пикселей
Высота : 304 пикселя
Соотношение сторон : 2,35:1
Частота кадров : 23,976 кадра/сек
Цветовое пространство : YUV
Субдискретизация насыщенности : 4:2:0
Битовая глубина : 8 бит
Тип развёртки : Прогрессивная
Метод сжатия : С потерями
Бит/(Пиксели*Кадры) : 0.379
Размер потока : 1,18 Гбайт (81%)
Библиотека кодирования : XviD 1.2.1 (UTC 2008-12-04)

Аудио
Идентификатор : 1
Формат : AC-3
Формат/Информация : Audio Coding 3
Расширение режима : CM (complete main)
Параметр Endianness формата : Big
Идентификатор кодека : 2000
Продолжительность : 1 ч. 25 м.
Вид битрейта : Постоянный
Битрейт : 448 Кбит/сек
Каналы : 6 каналов
Расположение каналов : Front: L C R, Side: L R, LFE
Частота : 48,0 КГц
Битовая глубина : 16 бит
Метод сжатия : С потерями
Размер потока : 273 Мбайт (18%)
Выравнивание : Разделение по промежуткам
Продолжительность промежутка : 42 мс. (1,00 видеокадр)
Время предзагрузки промежутка : 500 мс.

 

Скриншоты:



Статистика торрента
Раздают: 33 Качают: 123 Размер: 1.46GB Скачали: 16
Имя файла: 37458_-rutor.org-Koro.torrent
Похожие торренты
Отзывы пользователей
Добавить отзыв