1.27GB / Том и Джерри: Потерянный дракон / Tom & Jerry: The Lost Dragon (Тони Червоне) [2014, мультфильм, DVDRip-AVC]

Категория: фильмы » Мультфильмы
рейтинг из 5
  • Добавил: zlidny
  • Дата: 14/09/14, 22:20:54
  • Просмотры: 305
  • Отзывы: 0
?????
Название игры:
Год выхода игры:
Жанр игры: Мультфильмы

Перевод: Профессиональный (многоголосый, закадровый), cубтитры: Русские
Формат: DVDRip-AVC, MKV, H.264, AC3
Страна: США, Turner Entertainment, Warner Bros. Animation
Режиссер: Тони Червоне
Жанр: мультфильм
Продолжительность: 00:54:22
Год выпуска: 2014
В ролях: Келли Стейблз, Викки Льюис, Джим Каммингс, Лорейн Ньюмен, Уэйн Найт
Описание:
Всеми любимая парочка — кот и мышь -вернулись в этой волшебной сказке! А вместе с ними — и песни, веселье и магия. Приключение наших героев начинается с того, что они находят странное яйцо, которое было украдено у огромного огнедышащего дракона! Вскоре из яйца вылупляется малыш Паффи и решает, что Том — это его мама. Настоящая мама-дракониха хочет вернуть своего драконёнка, но не она одна — за малышом охотится ведьма Дризельда! С помощью волшебных союзников и зверей Тому и Джерри предстоит остановить ведьму и вернуть детёныша его маме. Вас ждёт магия, сражения и, конечно же, море веселья! Смогут ли друзья помочь героям этой сказки, будет ли у неё счастливый финал? Отправьтесь в это увлекательное путешествие всей семьёй и сами узнаете!



Видео: 720x572@1024x572 (16:9), 25 fps, AVC (х.264) High@L4.1 ~2500 kbps avg, 0.243 bit/pixel
Аудио#1: Русский: 48 kHz, AC3 Dolby Digital, 3/2 (L,C,R,l,r) + LFEch, ~448 kbps ][Профессиональный (многоголосый закадровый)]
Аудио#2: ]Английский: 48 kHz, AC3 Dolby Digital, 3/2 (L,C,R,l,r) + LFE ch, 384.00 kbps ][Оригинал]
 

MI
Общее
Полное имя : Tom.i.Djerri.Poteryannyi.Drakon.2014.P.DVDRip-AVC_[New-Team]_by_avproh.mkv
Формат : Matroska
Версия формата : Version 4 / Version 2
Размер файла : 1,27 Гбайт
Продолжительность : 54 м.
Общий поток : 3334 Кбит/сек
Дата кодирования : UTC 2014-09-13 07:51:02
Программа кодирования : mkvmerge v7.1.0 ('Good Love') 64bit built on Jul 27 2014 13:06:55
Библиотека кодирования : libebml v1.3.0 + libmatroska v1.4.1
DURATION : 00:54:03.914000000
NUMBER_OF_FRAMES : 427
NUMBER_OF_BYTES : 20931
_STATISTICS_WRITING_APP : mkvmerge v7.1.0 ('Good Love') 64bit built on Jul 27 2014 13:06:55
_STATISTICS_WRITING_DATE_UTC : 2014-09-13 07:51:02
_STATISTICS_TAGS : BPS DURATION NUMBER_OF_FRAMES NUMBER_OF_BYTES

Видео
Идентификатор : 1
Формат : AVC
Формат/Информация : Advanced Video Codec
Профиль формата : High@L4.1
Параметр CABAC формата : Да
Параметр ReFrames формата : 8 кадров
Идентификатор кодека : V_MPEG4/ISO/AVC
Продолжительность : 54 м.
Битрейт : 2500 Кбит/сек
Ширина : 720 пикселей
Высота : 572 пикселя
Соотношение сторон : 16:9
Режим частоты кадров : Постоянный
Частота кадров : 25,000 кадров/сек
Цветовое пространство : YUV
Субдискретизация насыщенности : 4:2:0
Битовая глубина : 8 бит
Тип развёртки : Прогрессивная
Бит/(Пиксели*Кадры) : 0.243
Размер потока : 947 Мбайт (73%)
Библиотека кодирования : x264 core 138 r2356 a1d3d17
Настройки программы : cabac=1 / ref=8 / deblock=1:-2:-1 / analyse=0x3:0x113 / me=umh / subme=10 / psy=1 / psy_rd=1.00:0.05 / mixed_ref=1 / me_range=32 / chroma_me=1 / trellis=2 / 8x8dct=1 / cqm=0 / deadzone=21,11 / fast_pskip=0 / chroma_qp_offset=-3 / threads=6 / lookahead_threads=1 / sliced_threads=0 / nr=0 / decimate=0 / interlaced=0 / bluray_compat=0 / constrained_intra=0 / bframes=8 / b_pyramid=2 / b_adapt=2 / b_bias=0 / direct=3 / weightb=1 / open_gop=0 / weightp=2 / keyint=250 / keyint_min=25 / scenecut=40 / intra_refresh=0 / rc=2pass / mbtree=0 / bitrate=2500 / ratetol=1.0 / qcomp=0.60 / qpmin=0 / qpmax=69 / qpstep=4 / cplxblur=20.0 / qblur=0.5 / ip_ratio=1.40 / pb_ratio=1.30 / aq=1:1.00
Язык : English
Default : Да
Forced : Нет

Аудио #1
Идентификатор : 2
Формат : AC-3
Формат/Информация : Audio Coding 3
Расширение режима : CM (complete main)
Параметр Endianness формата : Big
Идентификатор кодека : A_AC3
Продолжительность : 54 м.
Вид битрейта : Постоянный
Битрейт : 448 Кбит/сек
Каналы : 6 каналов
Расположение каналов : Front: L C R, Side: L R, LFE
Частота : 48,0 КГц
Битовая глубина : 16 бит
Метод сжатия : С потерями
Размер потока : 174 Мбайт (13%)
Язык : Russian
Default : Да
Forced : Нет

Аудио #2
Идентификатор : 3
Формат : AC-3
Формат/Информация : Audio Coding 3
Расширение режима : CM (complete main)
Параметр Endianness формата : Big
Идентификатор кодека : A_AC3
Продолжительность : 54 м.
Вид битрейта : Постоянный
Битрейт : 384 Кбит/сек
Каналы : 6 каналов
Расположение каналов : Front: L C R, Side: L R, LFE
Частота : 48,0 КГц
Битовая глубина : 16 бит
Метод сжатия : С потерями
Размер потока : 149 Мбайт (12%)
Язык : English
Default : Нет
Forced : Нет

Текст
Идентификатор : 4
Формат : UTF-8
Идентификатор кодека : S_TEXT/UTF8
Идентификатор кодека/Информация : UTF-8 Plain Text
Язык : Russian
Default : Нет
Forced : Нет

Меню
00:00:00.000 : en:00:00:00.000
00:10:17.920 : en:00:10:17.920
00:17:41.200 : en:00:17:41.200
00:26:40.360 : en:00:26:40.360
00:32:30.200 : en:00:32:30.200
00:36:50.640 : en:00:36:50.640
00:47:41.360 : en:00:47:41.360
00:51:27.600 : en:00:51:27.600

скриншоты







Статистика торрента
Раздают: 158 Качают: 143 Размер: 1.27GB Скачали: 22
Имя файла: 37714_Tom.i.Djerri.Po.torrent
Похожие торренты
Отзывы пользователей
Добавить отзыв