1.46GB / Привязанные к дому / Housebound (Джерард Джонстоун) [2014, ужасы, чёрная комедия, мистика, триллер, WEB-DLRip-AVC]

Категория: фильмы » Mистика
рейтинг из 5
  • Добавил: zlidny
  • Дата: 03/11/14, 20:44:02
  • Просмотры: 460
  • Отзывы: 0
?????
Название игры:
Год выхода игры:
Жанр игры: Триллеры, Ужасы, Mистика

Перевод: Любительский (одноголосый) [datynet]

Cубтитры: английские

Формат: WEB-DLRip-AVC, MKV, H.264, AC3

Страна: Новая Зеландия

Режиссер: Джерард Джонстоун

Жанр: ужасы, чёрная комедия, мистика, триллер

Продолжительность: 01:46:46

Год выпуска: 2014

В ролях: Моргана О’Рейли, Рима Те Вьята, Глен-Поль Вару, Росс Харпер, Камерон Родс, Мик Иннес, Брюс Хопкинс, Уоллес Чепмен, Миллен Бейрд

Описание: Кайли Бакнелл вынуждена вернуться в фамильный особняк после того, как суд приговорил ее к заключению под домашний арест. Ее наказание за неудачную попытку ограбить банкомат осложняется еще и тем, что Кайли вынуждена жить со своей безумной мамой Мириам, которая убеждена, что особняк кишит приведениями…

__________________

Видео: 960x396 (2.40:1), 25.000 fps, AVC (H.264), High@L4.1 ~ 1575 Кbps, 0.166 bit/pixel

Аудио #1: Русский: 48 kHz, AC3 Dolby Digital, 2/0 (L,R) ch, ~192 kbps [Любительский (одноголосый)]
Аудио #2: Английский: 48 kHz, AC3 Dolby Digital, 2/0 (L,R) ch, ~192 kbps [Оригинал]
 

MediaInfo
General
Unique ID : 200196701467456120754607676176427586958 (0x969C7B724521F7E7A5D6E121E9F7158E)
Complete name : E:\Privjazannye.k.domu.2014.WEB-DLRip-AVC.VO.1.45Gb...stalkerok.new-team.mkv
Format : Matroska
File size : 1.46 GiB
Duration : 1h 46mn
Overall bit rate : 1 961 Kbps
Movie name : Housebound, 2014 (New-Team) (Rip by Stalker oK)
Encoded date : UTC 2014-11-01 21:53:11
Writing application : mkvmerge v6.1.0 ('Old Devil') built on Mar 4 2013 09:10:42
Writing library : libebml v1.3.0 + libmatroska v1.4.0

Video
ID : 1
Format : AVC
Format/Info : Advanced Video Codec
Format profile : High@L4.1
Format settings, CABAC : Yes
Format settings, ReFrames : 11 frames
Format settings, GOP : M=12, N=13
Codec ID : V_MPEG4/ISO/AVC
Duration : 1h 46mn
Bit rate : 1 575 Kbps
Width : 960 pixels
Height : 396 pixels
Display aspect ratio : 2.40:1
Frame rate : 25.000 fps
Color space : YUV
Chroma subsampling : 4:2:0
Bit depth : 8 bits
Scan type : Progressive
Bits/(Pixel*Frame) : 0.166
Stream size : 1.15 GiB (78%)
Writing library : x264 core 142 r2431 ac76440
Encoding settings : cabac=1 / ref=11 / deblock=1:-2:-2 / analyse=0x3:0x133 / me=umh / subme=11 / psy=1 / psy_rd=1.00:0.15 / mixed_ref=1 / me_range=48 / chroma_me=1 / trellis=2 / 8x8dct=1 / cqm=0 / deadzone=21,11 / fast_pskip=0 / chroma_qp_offset=-3 / threads=12 / lookahead_threads=3 / sliced_threads=0 / nr=0 / decimate=0 / interlaced=0 / bluray_compat=0 / constrained_intra=0 / bframes=11 / b_pyramid=2 / b_adapt=2 / b_bias=0 / direct=3 / weightb=1 / open_gop=0 / weightp=2 / keyint=250 / keyint_min=25 / scenecut=40 / intra_refresh=0 / rc_lookahead=80 / rc=2pass / mbtree=0 / bitrate=1575 / ratetol=1.0 / qcomp=0.70 / qpmin=0 / qpmax=69 / qpstep=4 / cplxblur=20.0 / qblur=0.5 / vbv_maxrate=20000 / vbv_bufsize=25000 / nal_hrd=none / filler=0 / ip_ratio=1.20 / pb_ratio=1.10 / aq=2:0.90

Audio #1
ID : 2
Format : AC-3
Format/Info : Audio Coding 3
Mode extension : CM (complete main)
Codec ID : A_AC3
Duration : 1h 46mn
Bit rate mode : Constant
Bit rate : 192 Kbps
Channel(s) : 2 channels
Channel positions : Front: L R
Sampling rate : 48.0 KHz
Bit depth : 16 bits
Compression mode : Lossy
Stream size : 147 MiB (10%)
Language : Russian

Audio #2
ID : 3
Format : AC-3
Format/Info : Audio Coding 3
Mode extension : CM (complete main)
Codec ID : A_AC3
Duration : 1h 46mn
Bit rate mode : Constant
Bit rate : 192 Kbps
Channel(s) : 2 channels
Channel positions : Front: L R
Sampling rate : 48.0 KHz
Bit depth : 16 bits
Compression mode : Lossy
Stream size : 147 MiB (10%)
Language : English

Text
ID : 4
Format : UTF-8
Codec ID : S_TEXT/UTF8
Codec ID/Info : UTF-8 Plain Text
Language : English

Menu
00:00:00.000 : en:1
00:06:10.000 : en:2
00:12:31.000 : en:3
00:17:13.000 : en:4
00:24:42.000 : en:5
00:31:00.000 : en:6
00:40:50.000 : en:7
00:45:40.000 : en:8
00:51:43.000 : en:9
00:59:45.000 : en:10
01:08:53.000 : en:11
01:15:19.000 : en:12
01:21:05.000 : en:13
01:25:38.000 : en:14
01:31:46.000 : en:15
01:43:35.000 : en:16

Статистика торрента
Раздают: 158 Качают: 85 Размер: 1.46GB Скачали: 14
Имя файла: 39265_Privjazannye.k..torrent
Похожие торренты
Отзывы пользователей
Добавить отзыв