Жена напрокат (2016) SATRip [H.264] (серии 1-4 из 4)

Категория: фильмы » Мелодрамы
рейтинг из 5
  • Добавил: zlidny
  • Дата: 19/12/16, 11:50:56
  • Просмотры: 145
  • Отзывы: 0
?????
Название игры:
Год выхода игры:
Жанр игры: Мелодрамы

Производство: Россия / «Epic Media»

Жанр: мелодрама



Режиссер: Александр Созонов

Актеры: Юлия Подозёрова, Алексей Морозов, Анна Потебня, Арсений Гусев, Даниил Коновалов , Михаил Химичев, Вячеслав Щенин, Ксения Теплова, Ирина Щенина и др.



Описание:

Жизнь удалась – Лена путешествует по Волге на собственной яхте! Люди на берегу кажутся ей неудачниками. Но к сожалению, иногда народ необходим, например, чтобы починить электричество на яхте… Так Лена знакомится с Димой, неухоженным мужиком из глубинки, который, похоже, считает себя ей ровней. Возмущённая девушка, не заплатив, выгоняет парня. А на следующий день она падает за борт. Потерявшая память, но не забывшая великосветских замашек, Лена мучает персонал местной больницы. Встретив там Лену, Дима называет её женой и забирает домой, где её ждёт запущенное хозяйство и трое избалованных детей...



pic

Возраст: 12+ (зрителям, достигшим 12 лет)

Дата российской премьеры: 18 декабря 2016 (ТВЦ)



Релиз от: Korsar



Продолжительность: ~00:46:00 серия

Качество видео: SATRip pic



Видео: AVC/H.264, 720x400 (16:9), ~1500 Кбит/сек

Аудио: AC3, 2 канала, 192 Кбит/сек, CBR




Mediainfo:



 
Общее
Уникальный идентификатор : 212760011431008338416527476735541061210 (0xA01016736592A5C786ECD2742AF5265A)
Полное имя : K:\Жена напрокат\01 серия_Жена напрокат_rip by_Aleksan55.mkv
Формат : Matroska
Версия формата : Version 2
Размер файла : 566 Мбайт
Продолжительность : 46 м.
Общий поток : 1694 Кбит/сек
Дата кодирования : UTC 2016-12-18 16:16:08
Программа кодирования : mkvmerge v7.8.0 ('River Man' wink 32bit built on Apr 3 2015 12:11:22
Библиотека кодирования : libebml v1.3.1 + libmatroska v1.4.2

Видео
Идентификатор : 1
Формат : AVC
Формат/Информация : Advanced Video Codec
Профиль формата : High@L3.1
Параметр CABAC формата : Да
Параметр ReFrames формата : 14 кадров
Идентификатор кодека : V_MPEG4/ISO/AVC
Продолжительность : 46 м.
Битрейт : 1500 Кбит/сек
Ширина : 720 пикселей
Высота : 400 пикселей
Соотношение сторон : 16:9
Режим частоты кадров : Постоянный
Частота кадров : 25,000 кадров/сек
Цветовое пространство : YUV
Субдискретизация насыщенности : 4:2:0
Битовая глубина : 8 бит
Тип развёртки : Прогрессивная
Бит/(Пиксели*Кадры) : 0.208
Размер потока : 491 Мбайт (87 wacko
Библиотека кодирования : x264 core 148 r2638 7599210
Настройки программы : cabac=1 / ref=14 / deblock=1:-1:-1 / analyse=0x3:0x133 / me=umh / subme=9 / psy=1 / psy_rd=1.00:0.15 / mixed_ref=0 / me_range=32 / chroma_me=1 / trellis=2 / 8x8dct=1 / cqm=0 / deadzone=21,11 / fast_pskip=0 / chroma_qp_offset=-3 / threads=3 / lookahead_threads=3 / sliced_threads=0 / nr=0 / decimate=0 / interlaced=0 / bluray_compat=0 / constrained_intra=0 / bframes=14 / b_pyramid=2 / b_adapt=1 / b_bias=0 / direct=3 / weightb=1 / open_gop=0 / weightp=2 / keyint=250 / keyint_min=25 / scenecut=40 / intra_refresh=0 / rc_lookahead=70 / rc=2pass / mbtree=1 / bitrate=1500 / ratetol=1.0 / qcomp=0.80 / qpmin=0 / qpmax=40 / qpstep=4 / cplxblur=20.0 / qblur=0.5 / ip_ratio=1.40 / aq=1:1.20
Default : Да
Forced : Нет
Цветовой диапазон : Limited
Основные цвета : BT.601 PAL
Характеристики трансфера : BT.470 System B, BT.470 System G
Коэффициенты матрицы : BT.601

Аудио
Идентификатор : 2
Формат : AC-3
Формат/Информация : Audio Coding 3
Расширение режима : CM (complete main)
Параметр Endianness формата : Big
Идентификатор кодека : A_AC3
Продолжительность : 46 м.
Вид битрейта : Постоянный
Битрейт : 192 Кбит/сек
Каналы : 2 канала
Расположение каналов : Front: L R
Частота : 48,0 КГц
Метод сжатия : С потерями
Размер потока : 64,2 Мбайт (11 wacko
Default : Да
Forced : Нет


 




Скриншоты:

pic pic pic pic







Скачал сам, помоги другим! Пиявки полезны только в медицине


Статистика торрента
Раздают: 322 Качают: 105 Размер: 2.23GB Скачали: 0
Имя файла: 41827_-NNMClub.to-ZHe.torrent
Похожие торренты
Отзывы пользователей
Добавить отзыв