3.18GB / Сила любви (1-2 серии из 2) (Сергей Гиргель) [2014, мелодрама, HDTVRip-AVC]

Категория: фильмы » Мелодрамы
рейтинг из 5
  • Добавил: zlidny
  • Дата: 03/11/14, 20:55:06
  • Просмотры: 930
  • Отзывы: 0
?????
Название игры:
Год выхода игры:
Жанр игры: Мелодрамы

Формат: HDTVRip-AVC, MKV, H.264, AC3
Режиссер: Сергей Гиргель
Жанр: мелодрама
Продолжительность: 2 x ~01:30:00
Год выпуска: 2014
В ролях: Данила Якушев, Марта Голубева, Валентина Гарцуева, Алексей Яровенко, Светлана Клименко, Эмилия Пранскуте, Андрей Душечкин, Ольга Бурлакова

Описание: Надежда профессионально занимается бальными танцами. Она не знает другой жизни, кроме танцев, и буквально посвятила им жизнь. Талант и бешеная работоспособность Надежды приводят к желаемому результату. Ее карьера стремительно идет в гору. Надежда и ее партнер и жених Стас должны ехать на престижный конкурс в Германию. Надежда ни секунды не сомневается, что из Германии они тоже вернутся победителями, а значит, и мировыми звездами. И сыграют свадьбу. Но честолюбивые планы Нади на личную жизнь и профессиональный успех рушатся в одну минуту – Надю сбивает машина.



Видео: 1024x576 (16:9), 25 fps, AVC MPEG-4 (х.264) High@L4.1 ~2166 kbps avg, 0.147 bit/pixel
Аудио: 48 kHz, AC3 Dolby Digital, 2/0 (L,R) ch, ~192 kbps
 

MediaInfo
Общее
Complete name : Sila.lyubvi.01.seriya.2014.HDTVRip.AVC.mkv
Format : Matroska
Format version : Version 4 / Version 2
File size : 1.33 GiB
Duration : 1h 19mn
Overall bit rate : 2 406 Kbps
Encoded date : UTC 2014-10-18 20:39:59

Video
ID : 1
Format : AVC
Format/Info : Advanced Video Codec
Format profile : High@L4.1
Format settings, CABAC : Yes
Format settings, ReFrames : 9 frames
Codec ID : V_MPEG4/ISO/AVC
Duration : 1h 19mn
Bit rate : 2 166 Kbps
Width : 1 024 pixels
Height : 576 pixels
Display aspect ratio : 16:9
Frame rate mode : Constant
Frame rate : 25.000 fps
Color space : YUV
Chroma subsampling : 4:2:0
Bit depth : 8 bits
Scan type : Progressive
Bits/(Pixel*Frame) : 0.147
Stream size : 1.20 GiB (90%)
Writing library : x264 core 142 r2431 ac76440

Audio
ID : 2
Format : AC-3
Format/Info : Audio Coding 3
Mode extension : CM (complete main)
Format settings, Endianness : Big
Codec ID : A_AC3
Duration : 1h 19mn
Bit rate mode : Constant
Bit rate : 192 Kbps
Channel count : 2 channels
Channel positions : Front: L R
Sampling rate : 48.0 KHz
Bit depth : 16 bits
Compression mode : Lossy
Stream size : 109 MiB (8%)
Language : Russian

скриншоты








Статистика торрента
Раздают: 41 Качают: 8 Размер: 3.18GB Скачали: 17
Имя файла: 39270_269864.torrent
Похожие торренты
Отзывы пользователей
Добавить отзыв