2.73GB / Снова один на всех (1-4 серии из 4) (Алексей Праздников) [2014, мелодрама, HDTVRip]

Категория: фильмы » Мелодрамы
рейтинг из 5
  • Добавил: zlidny
  • Дата: 14/09/14, 17:11:30
  • Просмотры: 243
  • Отзывы: 0
?????
Название игры:
Год выхода игры:
Жанр игры: Мелодрамы

Формат: HDTVRip, AVI, XviD, AC3
Режиссер: Алексей Праздников
Жанр: мелодрама
Продолжительность: 4 x ~ 00:43:00
Год выпуска: 2014
В ролях: Александр Дьяченко, Карина Разумовская, Татьяна Полонская, Оксана Базилевич, Ольга Сухорукова, Иван Паршин, Татьяна Григорьева, Татьяна Захарова, Алла Юганова
Описание:
Бравый подполковник Александров продолжает борьбу за добро и справедливость. Теперь он депутат городского совета и счастливый семьянин, а, главное, ему наконец удалось переселить своих подопечных-соседок в другой дом. Но новая беда уже рядом. Александров потеряет все, что любил, вновь станет жертвой предательства и будет рисковать жизнью. Хорошо, что этот человек никогда не опускает руки. Кто, если не он, спасет детский дом от продажных чиновников, перевоспитает местную шпану и поможет открыть разорившийся завод?



Видео: 720х400 (16:9), 25 fps, XviD MPEG-4 ~2053 kbps avg, 0.285 bit/pixel
Аудио: 48 kHz, АС3, 2 ch, Front: L R ~192.00 kbps avg
Тех. данные файлов идентичны.
 

MI
Общее
Полное имя : D:\Video\Snova.odin.na.vsex.2014.HDTVRip.RG.Russkie.serialy.&.Files-x\01.Snova.odin.na.vsex.2014.HDTVRip.RG.Russkie.serialy.&.Files-x.avi
Формат : AVI
Формат/Информация : Audio Video Interleave
Размер файла : 1,37 Гбайт
Продолжительность : 1 ч. 26 м.
Общий поток : 2255 Кбит/сек
Программа кодирования : VirtualDubModRus 1.5.10.2 (build 2542/release)
Библиотека кодирования : VirtualDubMod build 2542/release

Видео
Идентификатор : 0
Формат : MPEG-4 Visual
Профиль формата : Advanced Simple@L5
Параметр BVOP формата : 1
Параметр QPel формата : Нет
Параметр GMC формата : Без точки перехода
Параметр матрицы формата : Выборочная
Идентификатор кодека : XVID
Идентификатор кодека/Подсказка : XviD
Продолжительность : 1 ч. 26 м.
Битрейт : 2053 Кбит/сек
Ширина : 720 пикселей
Высота : 400 пикселей
Соотношение сторон : 16:9
Частота кадров : 25,000 кадров/сек
Цветовое пространство : YUV
Субдискретизация насыщенности : 4:2:0
Битовая глубина : 8 бит
Тип развёртки : Прогрессивная
Метод сжатия : С потерями
Бит/(Пиксели*Кадры) : 0.285
Размер потока : 1,24 Гбайт (91%)
Библиотека кодирования : XviD 73

Аудио
Идентификатор : 1
Формат : AC-3
Формат/Информация : Audio Coding 3
Расширение режима : CM (complete main)
Параметр Endianness формата : Big
Идентификатор кодека : 2000
Продолжительность : 1 ч. 26 м.
Вид битрейта : Постоянный
Битрейт : 192 Кбит/сек
Каналы : 2 канала
Расположение каналов : Front: L R
Частота : 48,0 КГц
Битовая глубина : 16 бит
Метод сжатия : С потерями
Размер потока : 119 Мбайт (9%)
Выравнивание : Разделение по промежуткам
Продолжительность промежутка : 40 мс. (1,00 видеокадр)
Время предзагрузки промежутка : 500 мс.

скриншоты





Статистика торрента
Раздают: 203 Качают: 45 Размер: 2.73GB Скачали: 10
Имя файла: 37697_snova-tfile.ru-.torrent
Похожие торренты
Отзывы пользователей
Добавить отзыв