2.73GB / Другая семья (1-2 серии из 2) (Александр Кананович) [2014, мелодрама, HDTVRip]

Категория: фильмы » Мелодрамы
рейтинг из 5
  • Добавил: zlidny
  • Дата: 07/09/14, 15:18:42
  • Просмотры: 222
  • Отзывы: 0
?????
Название игры:
Год выхода игры:
Жанр игры: Мелодрамы

Формат: HDTVRip, AVI, XviD, AC3
Режиссер: Александр Кананович
Жанр: мелодрама
Продолжительность: 2 х ~ 01:45:00
Год выпуска: 2014
В ролях: Анна Полупанова, Александр Никитин (IV), Светлана Тимофеева-Летуновская, Ирина Шевчук, Ольга Клебанович, Руслан Чернецкий, Аня Зайцева (III), Виктория Жбанкова, Андрей Карако, Юлианна Михневич, Валерий Зеленский (II), Алина Бахматович, Владимир Мищанчук, Ольга Бурлакова
Описание:
Лера беззаветно любит своего мужа Михаила. Михаил успешный бизнесмен, а Лера – модный дизайнер и счастливая жена, которая обеспечивает ему надежный тыл. Одно плохо: они прожили вместе пять лет, но с детьми никак не получается.Неожиданно в счастливую жизнь Леры врывается ужасное событие: она узнаёт, что у Михаила есть дочь, которой уже 14 лет, и, по сути, «другая семья» в соседнем провинциальном городке. Выясняется, что Михаил навещает дочь Лену и ее мать Тоню.



Видео: 720x400 (16:9), 25 fps, XviD build 50 ~1660 kbps avg, 0.231 bit/pixel
Аудио: 48 kHz, AC3 Dolby Digital, 2/0 (L,R) ch, ~192.00 kbps avg
Тех. данные файлов идентичны.
 

MI
General
Complete name : D:\Vytas\Video\Drugaja.semja.2014.HDTVRip.RG.Russkie.serialy.&.Files-x\01.Drugaja.semja.2014.HDTVRip.RG.Russkie.serialy.&.Files-x.avi
Format : AVI
Format/Info : Audio Video Interleave
File size : 1.37 GiB
Duration : 1h 45mn
Overall bit rate : 1 862 Kbps
Writing application : VirtualDubModRus 1.5.10.2 (build 2542/release)
Writing library : VirtualDubMod build 2542/release

Video
ID : 0
Format : MPEG-4 Visual
Format profile : Advanced Simple@L5
Format settings, BVOP : 1
Format settings, QPel : No
Format settings, GMC : No warppoints
Format settings, Matrix : Custom
Codec ID : XVID
Codec ID/Hint : XviD
Duration : 1h 45mn
Bit rate : 1 660 Kbps
Width : 720 pixels
Height : 400 pixels
Display aspect ratio : 16:9
Frame rate : 25.000 fps
Color space : YUV
Chroma subsampling : 4:2:0
Bit depth : 8 bits
Scan type : Progressive
Compression mode : Lossy
Bits/(Pixel*Frame) : 0.231
Stream size : 1.22 GiB (89%)
Writing library : XviD 73

Audio
ID : 1
Format : AC-3
Format/Info : Audio Coding 3
Mode extension : CM (complete main)
Format settings, Endianness : Big
Codec ID : 2000
Duration : 1h 45mn
Bit rate mode : Constant
Bit rate : 192 Kbps
Channel(s) : 2 channels
Channel positions : Front: L R
Sampling rate : 48.0 KHz
Bit depth : 16 bits
Compression mode : Lossy
Stream size : 145 MiB (10%)
Alignment : Split accross interleaves
Interleave, duration : 40 ms (1.00 video frame)
Interleave, preload duration : 500 ms

Статистика торрента
Раздают: 302 Качают: 59 Размер: 2.73GB Скачали: 12
Имя файла: 37496_drugaja-tfile.r.torrent
Похожие торренты
Отзывы пользователей
Добавить отзыв