2.35GB / Нити любви (1-4 серии из 4) (Александр Соловьёв) [2014, мелодрама, SATRip]

Категория: фильмы » Мелодрамы
рейтинг из 5
  • Добавил: zlidny
  • Дата: 26/10/14, 21:48:33
  • Просмотры: 269
  • Отзывы: 0
?????
Название игры:
Год выхода игры:
Жанр игры: Мелодрамы

Формат: SATRip, AVI, DivX, MP3
Режиссер: Александр Соловьёв
Жанр: мелодрама
Продолжительность: 4 x ~ 00:46:00
Год выпуска: 2014
В ролях: Анна Арефьева, Дмитрий Ульянов, Елена Корикова, Анжелика Агурбаш, Андрей Стоянов, Наргиля Терещенко
Описание:
Аннушка работает швеей на фабрике провинциального города Усть-Шахтинска и мечтает о карьере модельера. Счастливый случай сводит ее с популярной певицей Сливкиной, ко­торая помогает Аннушке попасть в Москву в Модный дом Нелюбова. Новая жизнь открыва­ется перед ней, но на пути к признанию придется пройти много испытаний…



Видео: 720x400 (1.80:1), 25 fps, DivX5 MPEG-4 ~1501 kbps avg, 0.208 bit/pixel
Аудио: 48 kHz, MPEG Layer 3, 2 ch, ~128.00 kbps avg
Тех. данные файлов идентичны.
 

MI
Общее
Полное имя : C:\Users\Admin\Downloads\Niti.lubvi.01.avi
Формат : AVI
Формат/Информация : Audio Video Interleave
Размер файла : 532 Мбайт
Продолжительность : 45 м.
Общий поток : 1642 Кбит/сек
Программа кодирования : transcode-1.1.5

Видео
Идентификатор : 0
Формат : MPEG-4 Visual
Параметр BVOP формата : Да
Параметр QPel формата : Нет
Параметр GMC формата : Без точки перехода
Параметр матрицы формата : Default (H.263)
Идентификатор кодека : DX50
Идентификатор кодека/Подсказка : DivX 5
Продолжительность : 45 м.
Битрейт : 1501 Кбит/сек
Ширина : 720 пикселей
Высота : 400 пикселей
Соотношение сторон : 16:9
Частота кадров : 25,000 кадров/сек
Цветовое пространство : YUV
Субдискретизация насыщенности : 4:2:0
Битовая глубина : 8 бит
Тип развёртки : Прогрессивная
Метод сжатия : С потерями
Бит/(Пиксели*Кадры) : 0.208
Размер потока : 486 Мбайт (91%)
Библиотека кодирования : Intel(R) MPEG-4 encoder based on Intel(R) IPP 6.1 build 137.20[6.1.137.763]

Аудио
Идентификатор : 1
Формат : MPEG Audio
Версия формата : Version 1
Профиль формата : Layer 3
Режим : Joint stereo
Расширение режима : MS Stereo
Идентификатор кодека : 55
Идентификатор кодека/Подсказка : MP3
Продолжительность : 45 м.
Вид битрейта : Постоянный
Битрейт : 128 Кбит/сек
Каналы : 2 канала
Частота : 48,0 КГц
Метод сжатия : С потерями
Размер потока : 41,4 Мбайт (8%)
Выравнивание : Соединение по промежуткам
Продолжительность промежутка : 24 мс. (0,60 видеокадр)
Время предзагрузки промежутка : 48 мс.
Библиотека кодирования : LAME3.98.2

скриншоты





Статистика торрента
Раздают: 18 Качают: 75 Размер: 2.35GB Скачали: 18
Имя файла: 38919_niti-tfile.ru-.torrent
Похожие торренты
Отзывы пользователей
Добавить отзыв