2.12GB / Позови и я приду (1-4 серии из 4) (Глеб Якубовский) [2014, мелодрама, SATRip]

Категория: фильмы » Мелодрамы
рейтинг из 5
  • Добавил: zlidny
  • Дата: 19/10/14, 13:48:41
  • Просмотры: 318
  • Отзывы: 0
?????
Название игры:
Год выхода игры:
Жанр игры: Мелодрамы

Формат: SATRip, AVI, DivX, MP3
Режиссер: Глеб Якубовский
Жанр: мелодрама
Продолжительность: 4 x ~ 00:46:00
Год выпуска: 2014
В ролях: Анатолий Руденко, Елена Полякова, Евгений Волоцкий, Марина Денисова
Описание:
Любовь к сыну, которого героиня вынуждена была оставить в детдоме, когда была несовершеннолетней... Любовь к мужчине, усыновившего её ребенка... И разлучница, стремящаяся заполучить этого мужчину через привязанность ребёнка, который ей не нужен... Но истинная любовь побеждает...



Видео: 720x384 (1.85:1), 25 fps, DivX5 MPEG-4 ~1651 kbps avg, 0.239 bit/pixel
Аудио: 48 kHz, MPEG Layer 3, 2 ch, ~128.00 kbps avg
 

MI
Общее
Полное имя : C:\Users\Admin\Downloads\Pozovi.i.ja.pridu\Pozovi.i.ja.pridu.1.avi
Формат : AVI
Формат/Информация : Audio Video Interleave
Размер файла : 540 Мбайт
Продолжительность : 42 м.
Общий поток : 1789 Кбит/сек
Программа кодирования : VirtualDubMod 1.5.10.2 (build 2540/release)
Библиотека кодирования : VirtualDub build 29808/release

Видео
Идентификатор : 0
Формат : MPEG-4 Visual
Параметр BVOP формата : Нет
Параметр QPel формата : Нет
Параметр GMC формата : Без точки перехода
Параметр матрицы формата : Default (H.263)
Идентификатор кодека : DX50
Идентификатор кодека/Подсказка : DivX 5
Продолжительность : 42 м.
Битрейт : 1651 Кбит/сек
Ширина : 720 пикселей
Высота : 384 пикселя
Соотношение сторон : 1,85:1
Частота кадров : 25,000 кадров/сек
Цветовое пространство : YUV
Субдискретизация насыщенности : 4:2:0
Битовая глубина : 8 бит
Тип развёртки : Прогрессивная
Метод сжатия : С потерями
Бит/(Пиксели*Кадры) : 0.239
Размер потока : 499 Мбайт (92%)
Библиотека кодирования : DivX 6.8.5 (UTC 2009-08-20)

Аудио
Идентификатор : 1
Формат : MPEG Audio
Версия формата : Version 1
Профиль формата : Layer 3
Режим : Joint stereo
Расширение режима : MS Stereo
Идентификатор кодека : 55
Идентификатор кодека/Подсказка : MP3
Продолжительность : 42 м.
Вид битрейта : Постоянный
Битрейт : 128 Кбит/сек
Каналы : 2 канала
Частота : 48,0 КГц
Метод сжатия : С потерями
Размер потока : 38,7 Мбайт (7%)
Выравнивание : Соединение по промежуткам
Продолжительность промежутка : 40 мс. (1,00 видеокадр)
Время предзагрузки промежутка : 504 мс.
Библиотека кодирования : LAME3.90.3

скриншоты







Статистика торрента
Раздают: 382 Качают: 77 Размер: 2.12GB Скачали: 21
Имя файла: 38650_pozovi-tfile.ru.torrent
Похожие торренты
Отзывы пользователей
Добавить отзыв