2.04GB / Дом спящих красавиц (2 серии из 2) (Сергей Комаров) [2014, мелодрама, SATRip]

Категория: фильмы » Мелодрамы
рейтинг из 5
  • Добавил: zlidny
  • Дата: 06/09/14, 15:10:01
  • Просмотры: 581
  • Отзывы: 0
?????
Название игры:
Год выхода игры:
Жанр игры: Мелодрамы

Формат: SATRip, AVI, DivX, MP3
Режиссер: Сергей Комаров
Жанр: мелодрама
Продолжительность: 2 х ~ 01:30:00
Год выпуска: 2014
В ролях: Марина Ворожищева, Людмила Аринина, Ольга Науменко, Евгения Дмитриева, Сергей Перегудов, Роман Полянский, Валентина Панина, Владимир Коренев, Валерий Новиков
Описание:
В старинном особняке в центре столицы живёт необычная семья Протопоповых. В ней нет мужчин, а четыре поколения женщин носят одно и то же редкое отчество Игнатьевна – по имени прапрадеда, единственного порядочного мужчины в роду. Уверенность женщин старшего поколения, что в современном мире не осталось достойных мужчин, передалась и 23-летней Марине. Девушка уже была влюблена в красавчика Павла, успела забеременеть и быстро в нём разочароваться. И, казалось бы, ждала её такая же судьба, как и всех женщин семьи. Но, не желая продолжать грустную традицию и становиться матерью-одиночкой, Марина решает избавиться от ребёнка. Срочная командировка в деревню и встреча там с необычным парнем Андреем неожиданно рушит все её планы...



Видео: 720х400 (16:9), 25 fps, DivX 5 MPEG-4 ~1501 kbps avg, 0.208 bit/pixel
Аудио: 48 kHz, MPEG Layer 3, 2 ch, ~128.00 kbps avg
 

MI
Общее
Полное имя : C:\Users\Admin\Downloads\Dom.spyaschih.krasavic.2014.SATRip\Dom.spyaschih.krasavic.01.SATRip.avi
Формат : AVI
Формат/Информация : Audio Video Interleave
Размер файла : 1,02 Гбайт
Продолжительность : 1 ч. 28 м.
Общий поток : 1638 Кбит/сек
Библиотека кодирования : VirtualDub build 35491/release

Видео
Идентификатор : 0
Формат : MPEG-4 Visual
Параметр BVOP формата : 1
Параметр QPel формата : Нет
Параметр GMC формата : Без точки перехода
Параметр матрицы формата : Default (H.263)
Режим смешивания : Сжатый битовый поток
Идентификатор кодека : DX50
Идентификатор кодека/Подсказка : DivX 5
Продолжительность : 1 ч. 28 м.
Битрейт : 1501 Кбит/сек
Ширина : 720 пикселей
Высота : 400 пикселей
Соотношение сторон : 16:9
Частота кадров : 25,000 кадров/сек
Цветовое пространство : YUV
Субдискретизация насыщенности : 4:2:0
Битовая глубина : 8 бит
Тип развёртки : Прогрессивная
Метод сжатия : С потерями
Бит/(Пиксели*Кадры) : 0.208
Размер потока : 952 Мбайт (92%)
Библиотека кодирования : DivX 6.8.5 (UTC 2009-08-20)

Аудио
Идентификатор : 1
Формат : MPEG Audio
Версия формата : Version 1
Профиль формата : Layer 3
Режим : Joint stereo
Идентификатор кодека : 55
Идентификатор кодека/Подсказка : MP3
Продолжительность : 1 ч. 28 м.
Вид битрейта : Постоянный
Битрейт : 128 Кбит/сек
Каналы : 2 канала
Частота : 48,0 КГц
Метод сжатия : С потерями
Размер потока : 81,2 Мбайт (8%)
Выравнивание : Разделение по промежуткам
Продолжительность промежутка : 40 мс. (1,00 видеокадр)
Время предзагрузки промежутка : 500 мс.

скриншоты







Статистика торрента
Раздают: 387 Качают: 134 Размер: 2.04GB Скачали: 38
Имя файла: 37423_dom-tfile.ru-.torrent
Похожие торренты
Отзывы пользователей
Добавить отзыв