1.98GB / Вдовец (1-4 серии из 4) (Борис Рабей) [2014, мелодрама, SATRip]

Категория: фильмы » Мелодрамы
рейтинг из 5
  • Добавил: zlidny
  • Дата: 12/10/14, 14:23:59
  • Просмотры: 334
  • Отзывы: 0
?????
Название игры:
Год выхода игры:
Жанр игры: Мелодрамы

Формат: SATRip, AVI, XviD, MP3
Режиссер: Борис Рабей
Жанр: мелодрама
Продолжительность: 4 x ~ 00:44:00
Год выпуска: 2014
В ролях: Елена Радевич, Павел Трубинер, Дима Полунин, Екатерина Олькина, Дмитрий Ячевский, Саша Лебедева
Описание:
Вере катастрофически не везет в личной жизни. Мужчины не влюбляются в героиню, а переваливают на ее плечи все тяготы и заботы, и вскоре бросают.
После ухода второго мужа, Вера, пытаясь отвлечься от тоски, отправляется на курорт. На море она знакомится с веселой и беззаботной Аленой и ее маленьким сыном. Но радость оказывается недолгой – во время шторма с новыми друзьями случается страшная трагедия. Вера в ужасе от случившегося и всеми силами пытается поддержать безутешного мужа Алены - Бориса. Неожиданно открывшиеся обстоятельства помогут дружеским отношениям двух одиноких людей перейти в нечто большее…



Видео: 720x400 (1.80:1), 25 fps, XviD MPEG-4 ~1400 kbps avg, 0.194 bit/pixel
Аудио: 48 kHz, MPEG Layer 3, 2 ch, ~192.00 kbps avg
 

MI
Общее
Полное имя : C:\Users\Admin\Downloads\Вдовец (2014)\Вдовец.(01.seriya).2014.XviD.SATRip.by.simka.avi
Формат : AVI
Формат/Информация : Audio Video Interleave
Размер файла : 491 Мбайт
Продолжительность : 42 м.
Общий поток : 1602 Кбит/сек
Программа кодирования : VirtualDubModRus 1.5.10.2 (build 2542/release)
Библиотека кодирования : VirtualDubMod build 2542/release

Видео
Идентификатор : 0
Формат : MPEG-4 Visual
Профиль формата : Advanced Simple@L5
Параметр BVOP формата : 1
Параметр QPel формата : Нет
Параметр GMC формата : Без точки перехода
Параметр матрицы формата : Default (MPEG)
Идентификатор кодека : XVID
Идентификатор кодека/Подсказка : XviD
Продолжительность : 42 м.
Битрейт : 1400 Кбит/сек
Ширина : 720 пикселей
Высота : 400 пикселей
Соотношение сторон : 16:9
Частота кадров : 25,000 кадров/сек
Цветовое пространство : YUV
Субдискретизация насыщенности : 4:2:0
Битовая глубина : 8 бит
Тип развёртки : Прогрессивная
Метод сжатия : С потерями
Бит/(Пиксели*Кадры) : 0.194
Размер потока : 429 Мбайт (87%)
Библиотека кодирования : XviD 1.2.1 (UTC 2008-12-04)

Аудио
Идентификатор : 1
Формат : MPEG Audio
Версия формата : Version 1
Профиль формата : Layer 3
Режим : Joint stereo
Расширение режима : MS Stereo
Идентификатор кодека : 55
Идентификатор кодека/Подсказка : MP3
Продолжительность : 42 м.
Вид битрейта : Постоянный
Битрейт : 192 Кбит/сек
Каналы : 2 канала
Частота : 48,0 КГц
Метод сжатия : С потерями
Размер потока : 58,9 Мбайт (12%)
Выравнивание : Соединение по промежуткам
Продолжительность промежутка : 40 мс. (1,00 видеокадр)
Время предзагрузки промежутка : 504 мс.
Библиотека кодирования : LAME3.99r
Настройки программы : -m j -V 4 -q 2 -lowpass 18.6 -b 192

скриншоты





Статистика торрента
Раздают: 72 Качают: 85 Размер: 1.98GB Скачали: 22
Имя файла: 38420_vdovec-tfile.ru.torrent
Похожие торренты
Отзывы пользователей
Добавить отзыв