1.46GB / Дивергент / Divergent (Нил Бёргер) [2014, фантастика, мелодрама, приключения, BDRip-AVC]

Категория: фильмы » Мелодрамы
рейтинг из 5
  • Добавил: zlidny
  • Дата: 20/08/14, 18:44:10
  • Просмотры: 260
  • Отзывы: 0
?????
Название игры:
Год выхода игры:
Жанр игры: Приключения, Фантастика, Мелодрамы

Перевод: Профессиональный (полное дублирование) [Лицензия]

Cубтитры: русские, английские (Full + SDH + SDH-Colored)

Формат: BDRip-AVC, MKV, H.264, AC3

Страна: США

Режиссер: Нил Бёргер

Жанр: фантастика, мелодрама, приключения

Продолжительность: 02:19:40

Год выпуска: 2014

В ролях: Шейлин Вудли, Кейт Уинслет, Тео Джеймс, Эшли Джадд, Джай Кортни, Рэй Стивенсон, Зои Кравиц, Майлз Теллер, Тони Голдуин, Мэгги Кью

Описание: Действие развивается на Земле в будущем, в деспотичном Чикаго. Все подростки, достигшие 16 лет, обязаны выбрать одну из пяти фракций и присоединиться к ней на всю оставшуюся жизнь. Каждая фракция представляет определенное качество: Искренность, Отречение, Бесстрашие, Дружелюбие и Эрудиция.

________________

Видео: 960x400 (2,40:1), 23.976 fps, AVC (H.264), High@L4.1 ~ 1307 kbps, 0.142 bit/pixel
Аудио: 48 kHz, AC3 Dolby Digital, 2/0 (L,R) ch, 192.00 kbps
 

MediaInfo
General
Unique ID : 252614926302878153243817333059174350034 (0xBE0BDD76F854B188BD8DA9C78ED13CD2)
Complete name : E:\Divergent_Klayd X.mkv
Format : Matroska
File size : 1.46 GiB
Duration : 2h 19mn
Overall bit rate : 1 497 Kbps
Movie name : Divergent (2014) - HELLYWOOD
Encoded date : UTC 2014-08-17 06:28:54
Writing application : mkvmerge v5.9.0 ('On The Loose') built on Dec 15 2012 16:39:58
Writing library : libebml v1.3.0 + libmatroska v1.4.0

Video
ID : 1
Format : AVC
Format/Info : Advanced Video Codec
Format profile : High@L4.1
Format settings, CABAC : Yes
Format settings, ReFrames : 12 frames
Codec ID : V_MPEG4/ISO/AVC
Duration : 2h 19mn
Bit rate : 1 307 Kbps
Width : 960 pixels
Height : 400 pixels
Display aspect ratio : 2.40:1
Frame rate : 23.976 fps
Color space : YUV
Chroma subsampling : 4:2:0
Bit depth : 8 bits
Scan type : Progressive
Bits/(Pixel*Frame) : 0.142
Stream size : 1.24 GiB (85%)
Title : potroks
Writing library : x264 core 130 r2273 b3065e6
Encoding settings : cabac=1 / ref=12 / deblock=1:-2:-2 / analyse=0x3:0x133 / me=umh / subme=11 / psy=1 / psy_rd=1.00:0.00 / mixed_ref=1 / me_range=48 / chroma_me=1 / trellis=2 / 8x8dct=1 / cqm=0 / deadzone=21,11 / fast_pskip=0 / chroma_qp_offset=-2 / threads=9 / lookahead_threads=6 / sliced_threads=0 / nr=0 / decimate=0 / interlaced=0 / bluray_compat=0 / constrained_intra=0 / bframes=13 / b_pyramid=2 / b_adapt=2 / b_bias=0 / direct=3 / weightb=1 / open_gop=0 / weightp=2 / keyint=250 / keyint_min=23 / scenecut=40 / intra_refresh=0 / rc=2pass / mbtree=0 / bitrate=1307 / ratetol=1.0 / qcomp=0.70 / qpmin=0 / qpmax=69 / qpstep=4 / cplxblur=20.0 / qblur=0.5 / ip_ratio=1.35 / pb_ratio=1.25 / aq=2:0.90
Language : English

Audio
ID : 2
Format : AC-3
Format/Info : Audio Coding 3
Mode extension : CM (complete main)
Codec ID : A_AC3
Duration : 2h 19mn
Bit rate mode : Constant
Bit rate : 192 Kbps
Channel(s) : 2 channels
Channel positions : Front: L R
Sampling rate : 48.0 KHz
Bit depth : 16 bits
Compression mode : Lossy
Stream size : 192 MiB (13%)
Title : Dub | DD 2.0 @ 192 kbps - Blu-Ray RUS
Language : Russian

Text #1
ID : 3
Format : UTF-8
Codec ID : S_TEXT/UTF8
Codec ID/Info : UTF-8 Plain Text
Language : Russian

Text #2
ID : 4
Format : UTF-8
Codec ID : S_TEXT/UTF8
Codec ID/Info : UTF-8 Plain Text
Language : English

Text #3
ID : 5
Format : UTF-8
Codec ID : S_TEXT/UTF8
Codec ID/Info : UTF-8 Plain Text
Title : SDH
Language : English

Text #4
ID : 6
Format : UTF-8
Codec ID : S_TEXT/UTF8
Codec ID/Info : UTF-8 Plain Text
Title : SDH-Colored
Language : English

Menu
00:00:00.000 : en:(01)00:00:00:000
00:07:57.475 : en:(02)00:07:57:475
00:15:29.595 : en:(03)00:15:29:595
00:23:31.034 : en:(04)00:23:31:034
00:33:56.616 : en:(05)00:33:56:616
00:38:52.954 : en:(06)00:38:52:954
00:44:24.327 : en:(07)00:44:24:327
00:53:37.505 : en:(08)00:53:37:505
01:00:02.681 : en:(09)01:00:02:681
01:06:32.070 : en:(10)01:06:32:070
01:13:19.603 : en:(11)01:13:19:603
01:20:08.136 : en:(12)01:20:08:136
01:28:41.439 : en:(13)01:28:41:439
01:35:54.957 : en:(14)01:35:54:957
01:46:19.372 : en:(15)01:46:19:372
01:57:54.692 : en:(16)01:57:54:692
02:19:40.163 : en:(17)02:19:40:163

Статистика торрента
Раздают: 230 Качают: 32 Размер: 1.46GB Скачали: 19
Имя файла: 37103_Divergent_Klayd.torrent
Похожие торренты
Отзывы пользователей
Добавить отзыв