1.29GB / Заезжий молодец (Кира Ангелина) [2014, мелодрама, SATRip]

Категория: фильмы » Мелодрамы
рейтинг из 5
  • Добавил: zlidny
  • Дата: 19/10/14, 13:50:08
  • Просмотры: 380
  • Отзывы: 0
?????
Название игры:
Год выхода игры:
Жанр игры: Мелодрамы

Формат: SATRip, AVI, DivX, MP3
Режиссер: Кира Ангелина
Жанр: мелодрама
Продолжительность: 01:30:17
Год выпуска: 2014
В ролях: Мария Куликова, Александр Усердин, Алексей Зубков, Артур Псакин, Наталия Просветова, Диана Енакаева, Татьяна Шатилова
Описание:
Лариса – сильная женщина, которая давно привыкла сама справляться с любыми проблемами. Она в одиночку воспитывает непростого сына-подростка, тяжёлым трудом зарабатывает на жизнь, и давно отчаялась обрести личное счастье. Соседка Ларисы, желая завладеть её домом, сводит героиню со своим племянником Олегом, недалеким солдафоном. Устав от бесконечного одиночества, Лариса пытается построить с ним отношения, но сговор вскоре раскрывается... Неожиданно Лариса становится свидетельницей того, как полиция задерживает на улице мужчину без документов. Проникнувшись к незнакомцу, героиня помогает ему освободиться и платит за него штраф. На следующий день спасённый появляется у неё дома, но вовсе не затем, чтобы отдать долг – он просит Ларису о ночлеге. В гневе героиня прогоняет его, но дальнейшие события в корне меняют отношение женщины к этому человеку, так странно появившемуся в её жизни...



Видео: 720x400 (1.80:1), 25 fps, DivX5 MPEG-4 ~1851 kbps avg, 0.257 bit/pixel
Аудио: 48 kHz, MPEG Layer 3, 2 ch, ~192.00 kbps avg
 

MI
Общее
Полное имя : C:\Users\Admin\Downloads\Zaezzhij.molodec.2014.DivX.SATRip.ExKinoRay.avi
Формат : AVI
Формат/Информация : Audio Video Interleave
Размер файла : 1,29 Гбайт
Продолжительность : 1 ч. 29 м.
Общий поток : 2052 Кбит/сек
Библиотека кодирования : Boilsoft AVI tool build 1/release

Видео
Идентификатор : 0
Формат : MPEG-4 Visual
Параметр BVOP формата : 1
Параметр QPel формата : Нет
Параметр GMC формата : Без точки перехода
Параметр матрицы формата : Default (H.263)
Режим смешивания : Сжатый битовый поток
Идентификатор кодека : DX50
Идентификатор кодека/Подсказка : DivX 5
Продолжительность : 1 ч. 29 м.
Битрейт : 1851 Кбит/сек
Ширина : 720 пикселей
Высота : 400 пикселей
Соотношение сторон : 16:9
Частота кадров : 25,000 кадров/сек
Цветовое пространство : YUV
Субдискретизация насыщенности : 4:2:0
Битовая глубина : 8 бит
Тип развёртки : Прогрессивная
Метод сжатия : С потерями
Бит/(Пиксели*Кадры) : 0.257
Размер потока : 1,16 Гбайт (90%)
Библиотека кодирования : DivX 6.8.5 (UTC 2009-08-20)

Аудио
Идентификатор : 1
Формат : MPEG Audio
Версия формата : Version 1
Профиль формата : Layer 3
Режим : Joint stereo
Идентификатор кодека : 55
Идентификатор кодека/Подсказка : MP3
Продолжительность : 1 ч. 29 м.
Вид битрейта : Постоянный
Битрейт : 192 Кбит/сек
Каналы : 2 канала
Частота : 48,0 КГц
Метод сжатия : С потерями
Размер потока : 123 Мбайт (9%)
Выравнивание : Разделение по промежуткам
Продолжительность промежутка : 40 мс. (1,00 видеокадр)
Время предзагрузки промежутка : 500 мс.

скриншоты






Статистика торрента
Раздают: 214 Качают: 119 Размер: 1.29GB Скачали: 23
Имя файла: 38651_Zaezzhij.molode.torrent
Похожие торренты
Отзывы пользователей
Добавить отзыв