1.45GB / Просто Джексон (Леонид Пляскин) [2012, криминал, WEB-DLRip]

Категория: фильмы » Криминал
рейтинг из 5
  • Добавил: zlidny
  • Дата: 14/10/14, 20:45:19
  • Просмотры: 205
  • Отзывы: 0
?????
Название игры:
Год выхода игры:
Жанр игры: Криминал

Формат: WEB-DLRip, AVI, XviD, AC3
Режиссер: Леонид Пляскин
Жанр: криминал
Продолжительность: 01:32:00
Год выпуска: 2012
В ролях: Дмитрий Быковский-Ромашов, Андрей Горбачев, Екатерина Суворова, Дмитрий Орлов (III), Роман Бокашевский, Андрей Гульнев, Елизавета Прилепская, Сергей Великанов, Андрей Мокеев, Леонид Луценко, Илья Катунцев, Евгений Катаев
Описание: Расследуя дело о пропаже сына бывшего начальника угрозыска Дегтярёва, Джексон задерживает возможного подозреваемого - владельца машины, в который силой увезли похищенного юношу. В салоне автомобиля предполагаемого похитителя Джексон находит сумку, доверху набитую деньгами в банковской упаковке, украденными во время последнего из серии ограблений и убийств инкассаторов. Задержанный Ивченко отказывается общаться с Хмелёвой, ведущей его дело, но Джексон знает, что этот бандит остаётся единственной ниточкой, связывающей оба дела - похищение Дегтярёва и разбойные нападения на банковские броневики. Версия Джексона подтверждается самым печальным образом: подельники Ивченко расправляются с девушкой майора Валентиной. Вооружившись до зубов купленным на чёрном рынке оружием, Джексон начинает свою собственную борьбу с похитителями, которую он сам называет "война миров".
Рейтинг на КиноПоиске:
Видео: 720x400 (1.80:1), 25 fps, XviD build 50 ~2059 kbps avg, 0.29 bit/pixel
Аудио: 48 kHz, AC3 Dolby Digital, 2/0 (L,R) ch, ~192 kbps
 

MI
Код:
Prosto.Dzhekson.2012.WEB-DLRip.Deadmauvlad.1.45.GB.avi
Формат                                   : AVI
Формат/Информация                        : Audio Video Interleave
Размер файла                             : 1,45 Гбайт
Продолжительность                        : 1 ч. 32 м.
Общий поток                              : 2261 Кбит/сек
Название фильма                          : Prosto.Dzhekson.2012.WEB-DLRip.Deadmauvlad.1.45.GB
Режиссёр                                 : Deadmauvlad
Жанр                                     : боевик, приключеня
Программа кодирования                    : VirtualDubMod 1.5.10.2 (build 2540/release)
Формат оригинала/Имя                     : Фильм
Правообладатель                          : Goldenshara

Видео
Идентификатор                            : 0
Формат                                   : MPEG-4 Visual
Профиль формата                          : Advanced Simple@L5
Параметр BVOP формата                    : 1
Параметр QPel формата                    : Да
Параметр GMC формата                     : 3 точки перехода
Параметр матрицы формата                 : Выборочная
Идентификатор кодека                     : XVID
Идентификатор кодека/Подсказка           : XviD
Продолжительность                        : 1 ч. 32 м.
Битрейт                                  : 2060 Кбит/сек
Ширина                                   : 720 пикселей
Высота                                   : 400 пикселей
Соотношение сторон                       : 16:9
Частота кадров                           : 25,000 кадров/сек
Цветовое пространство                    : YUV
Субдискретизация насыщенности            : 4:2:0
Битовая глубина                          : 8 бит
Тип развёртки                            : Чересстрочная
Порядок развёртки                        : Нижнее поле первое
Метод сжатия                             : С потерями
Бит/(Пиксели*Кадры)                      : 0.286
Размер потока                            : 1,32 Гбайт (91%)
Библиотека кодирования                   : XviD 1.2.1 (UTC 2008-12-04)

Аудио
Идентификатор                            : 1
Формат                                   : AC-3
Формат/Информация                        : Audio Coding 3
Расширение режима                        : CM (complete main)
Параметр Endianness формата              : Big
Идентификатор кодека                     : 2000
Продолжительность                        : 1 ч. 32 м.
Вид битрейта                             : Постоянный
Битрейт                                  : 192 Кбит/сек
Каналы                                   : 2 канала
Расположение каналов                     : Front: L R
Частота                                  : 48,0 КГц
Битовая глубина                          : 16 бит
Метод сжатия                             : С потерями
Размер потока                            : 126 Мбайт (8%)
Выравнивание                             : Разделение по промежуткам
Продолжительность промежутка             : 40  мс. (1,00 видеокадр)
Время предзагрузки промежутка            : 500  мс.
 

Статистика торрента
Раздают: 334 Качают: 69 Размер: 1.45GB Скачали: 9
Имя файла: 38499_Prosto.Dzhekson.torrent
Похожие торренты
Отзывы пользователей
Добавить отзыв