11.30GB / Королева бандитов [02х01-16 из 16] (2014) HDTVRip-AVC

Категория: фильмы » Криминал
рейтинг из 5
  • Добавил: zlidny
  • Дата: 25/10/14, 13:25:04
  • Просмотры: 265
  • Отзывы: 0
?????
Название игры:
Год выхода игры:
Жанр игры: Мелодрамы, Криминал


Название: Королева бандитов 2
Год выхода: 2014
Жанр: Криминальная мелодрама
Режиссер: Дмитрий Кузьмин
В ролях: Екатерина Кузнецова, Роман Полянский, Елена Сафонова, Александр Дьяченко, Юрий Устюгов, Артур Бичахчян, Пётр Томашевский, Юрий Елагин, Ольга Павловец, Анна Казючиц, Ангелина Притуманова, Софья Хурсан, Денис Варенов, Олег Пыхонин, Алина Бабак, Даниил Коновалов, Александр Никольский, Сергей Иванюк, Сергей Комаров, Иван Непомнящий, Алексей Овсянников, Анастасия Шаповал



Семейное счастье Полины Поливановой оказывается недолгим: Гриша трагически погибает, Татку забирают в приют, а саму героиню выселяют из служебной квартиры и выгоняют с работы. Полина впадает в отчаяние: она остается одна без средств к существованию, и помощи ей ждать неоткуда. Пытаясь найти хоть какой-то выход, девушка решает отыскать друга Козыря «Сашу Грозу из Ярославля», чьё имя выгравировано на подаренном ей перстне. Вскоре героиня находит таинственного друга, но, вопреки ожиданиям, Сашей-Грозой оказывается женщина. Она привечает Полину в своём доме, не посвятив девушку, какие тайны хранит их страшный посёлок. Полине предстоит жить под одной крышей с вдовой серьёзного бандита и ее сыном – красавцем, прозванным Принцем, узнать тайны загадочного Лесника, по слухам, убившего свою жену, и вызвать ненависть соратника Принца – Палача. Каждый здесь ведет свою игру, и Полине придется разобраться в запутанной и опасной головоломке, чтобы найти единственно верный выход…



Страна: Россия, Кинокомпания "Русское"
Продолжительность: 16 х ~ 00:45:00
Язык: Русский


Файл
Формат: MKV
Кодек: MPEG-4 AVC
Качество: HDTVRip (AVC)
Видео: 1024x576 ~ 2000 Кбит/с
Звук: (MP3, 2 ch, 256 Кбит/c)
Автор рипа:



 

Инфо-файлик

General
Unique ID : 251101058381106056324828328800222079729 (0xBCE84E0376ACDF12E2DF8B0EB6066AF1)
Complete name : D:ВидеоКоролева бандитов 2Koroleva.Banditov-2.(02.seriya.iz.16).mkv
Format : Matroska
Format version : Version 2
File size : 717 MiB
Duration : 44mn 36s
Overall bit rate : 2 246 Kbps
Writing application : Lavf54.63.104
Writing library : Lavf54.63.104

Video
ID : 1
Format : AVC
Format/Info : Advanced Video Codec
Format profile : Main@L3.1
Format settings, CABAC : Yes
Format settings, ReFrames : 1 frame
Codec ID : V_MPEG4/ISO/AVC
Duration : 44mn 36s
Bit rate : 2 000 Kbps
Width : 1 024 pixels
Height : 576 pixels
Display aspect ratio : 16:9
Frame rate mode : Constant
Frame rate : 25.000 fps
Color space : YUV
Chroma subsampling : 4:2:0
Bit depth : 8 bits
Scan type : Progressive
Bits/(Pixel*Frame) : 0.136
Stream size : 621 MiB (87%)
Writing library : x264 core 129
Encoding settings : cabac=1 / ref=1 / deblock=1:0:0 / analyse=0x1:0x131 / me=dia / subme=2 / psy=1 / psy_rd=1.00:0.00 / mixed_ref=0 / me_range=16 / chroma_me=1 / trellis=0 / 8x8dct=0 / cqm=0 / deadzone=21,11 / fast_pskip=1 / chroma_qp_offset=0 / threads=4 / lookahead_threads=1 / sliced_threads=0 / nr=0 / decimate=1 / interlaced=0 / bluray_compat=0 / constrained_intra=0 / bframes=0 / weightp=2 / keyint=250 / keyint_min=25 / scenecut=40 / intra_refresh=0 / rc_lookahead=40 / rc=abr / mbtree=1 / bitrate=2000 / ratetol=1.0 / qcomp=0.60 / qpmin=10 / qpmax=51 / qpstep=4 / ip_ratio=1.41 / aq=1:1.00
Default : Yes
Forced : No

Audio
ID : 2
Format : MPEG Audio
Format version : Version 1
Format profile : Layer 3
Mode : Joint stereo
Mode extension : MS Stereo
Codec ID : A_MPEG/L3
Codec ID/Hint : MP3
Duration : 44mn 36s
Bit rate mode : Constant
Bit rate : 256 Kbps
Channel(s) : 2 channels
Sampling rate : 48.0 KHz
Compression mode : Lossy
Stream size : 81.7 MiB (11%)
Writing library : LAME3.99.5
Default : Yes
Forced : No

 


Скриншоты




Статистика торрента
Раздают: 347 Качают: 29 Размер: 11.30GB Скачали: 15
Имя файла: 38839_-rutor.org-Koro.torrent
Похожие торренты
Отзывы пользователей
Добавить отзыв