878MB / Укради мою жену / Life of Crime (Дэниэл Шехтер) [2014, комедия, криминал, WEB-DLRip-AVC]

Категория: фильмы » Комедии
рейтинг из 5
  • Добавил: zlidny
  • Дата: 02/09/14, 22:46:21
  • Просмотры: 303
  • Отзывы: 0
?????
Название игры:
Год выхода игры:
Жанр игры: Криминал, Комедии

Год выпуска: 2014

премьера (РФ): 16 октября 2014

Выпущено: США

Жанр: комедия, криминал

Продолжительность: 01:40:49

Перевод: Отсутствует ! [английская дорожка]

Субтитры: английские

Навигация по главам: Есть

Режиссер: Дэниэл Шехтер

В ролях: Дженнифер Энистон, Мос Деф, Айла Фишер, Уилл Форте, Марк Бун Джуниор, Тим Роббинс, Джон Хоукс, Клеа Льюис, Чарли Тахэн, Кевин Корригэн

Описание: Орделл Робб и Луис Гарра познакомились за решеткой, сев за одинаковые преступления — угон. Теперь они на свободе и готовят крупное дело: похищение жены детройтского девелопера с целью получения выкупа. Но им и в голову не могло прийти, что бедный, как церковная мышь, супруг не захочет вызволять благоверную. И тогда наступает время для запасного плана: настоящего убийства не без помощи жаждущей мести домохозяйки.

pic

Качество: WEB-DLRip-AVC

Формат: MKV

Видео кодек: h.264

Аудио кодек: AAC

Видео: h.264, 720x304, 1200 kbps, 23.976 fps

Аудио: AAC, 48.0 KHz, 2 ch, 128 Kbps, CBR

MI
General Complete name : E:\Life.of.Crime.2013.WEB-DL.x264-RARBG\Life.of.Crime.2013.WEB-DL.x264-RARBG.mp4 Format : MPEG-4 Format profile : Base Media Codec ID : isom File size : 877 MiB Duration : 1h 40mn Overall bit rate : 1 316 Kbps Movie name : Life.of.Crime.2013.WEB-DL.x264-RARBG Writing application : Lavf55.55.100

Video ID : 1 Format : AVC Format/Info : Advanced Video Codec Format profile : High@L3.1 Format settings, CABAC : Yes Format settings, ReFrames : 5 frames Codec ID : avc1 Codec ID/Info : Advanced Video Coding Duration : 1h 40mn Duration_LastFrame : 32ms Bit rate mode : Variable Bit rate : 1 200 Kbps Width : 720 pixels Height : 304 pixels Display aspect ratio : 2.35:1 Frame rate mode : Constant Frame rate : 23.976 fps Color space : YUV Chroma subsampling : 4:2:0 Bit depth : 8 bits Scan type : Progressive Bits/(Pixel*Frame) : 0.210 Stream size : 781 MiB (89%) Writing library : x264 core 142 r2438 af8e768 Encoding settings : cabac=1 / ref=5 / deblock=1:-2:-2 / analyse=0x3:0x113 / me=umh / subme=8 / psy=1 / psy_rd=0.90:0.00 / mixed_ref=1 / me_range=16 / chroma_me=1 / trellis=1 / 8x8dct=1 / cqm=0 / deadzone=21,11 / fast_pskip=1 / chroma_qp_offset=-2 / threads=8 / lookahead_threads=2 / sliced_threads=0 / nr=0 / decimate=1 / interlaced=0 / bluray_compat=0 / constrained_intra=0 / bframes=3 / b_pyramid=2 / b_adapt=2 / b_bias=0 / direct=3 / weightb=1 / open_gop=0 / weightp=2 / keyint=250 / keyint_min=25 / scenecut=40 / intra_refresh=0 / rc_lookahead=50 / rc=abr / mbtree=1 / bitrate=1100 / ratetol=1.0 / qcomp=0.60 / qpmin=0 / qpmax=69 / qpstep=4 / vbv_maxrate=31250 / vbv_bufsize=31250 / nal_hrd=none / filler=0 / ip_ratio=1.40 / aq=1:1.00 Language : English

Audio ID : 2 Format : AAC Format/Info : Advanced Audio Codec Format profile : LC Codec ID : 40 Duration : 1h 40mn Bit rate mode : Constant Bit rate : 128 Kbps Channel(s) : 6 channels Channel positions : Front: L C R, Side: L R, LFE Sampling rate : 48.0 KHz Compression mode : Lossy Stream size : 92.3 MiB (11%) Language : English

Text ID : 3 Format : Apple text Codec ID : text Duration : 1h 40mn Bit rate mode : Variable Bit rate : 0 Stream size : 375 Bytes (0%) Language : English

Menu 00:00:00.043 : Chapter 1 00:06:10.043 : Chapter 2 00:12:20.043 : Chapter 3 00:17:34.043 : Chapter 4 00:26:06.043 : Chapter 5 00:31:21.043 : Chapter 6 00:36:47.043 : Chapter 7 00:48:42.043 : Chapter 8 00:55:35.043 : Chapter 9 01:02:17.043 : Chapter 10 01:08:27.043 : Chapter 11 01:15:51.043 : Chapter 12 01:20:23.043 : Chapter 13 01:25:23.043 : Chapter 14 01:30:31.043 : Chapter 15 01:34:58.043 : Chapter 16
ЗакрытьСкриншоты
pic pic pic pic pic pic pic pic pic pic pic

Статистика торрента
Раздают: 303 Качают: 149 Размер: 878MB Скачали: 17
Имя файла: 37363_-goldenshara.co.torrent
Похожие торренты
Отзывы пользователей
Добавить отзыв