7.16GB / Спортлото-82 (1982) HDTV 1080i

Категория: фильмы » Комедии
рейтинг из 5
  • Добавил: zlidny
  • Дата: 29/10/14, 14:44:11
  • Просмотры: 349
  • Отзывы: 0
?????
Название игры:
Год выхода игры:
Жанр игры: Комедии

Информация о фильме
Название: Спортлото-82
Год выхода: 1982
Жанр: Комедия, приключения
Режиссер: Леонид Гайдай
В ролях: Альгис Арлаускас, Светлана Аманова, Михаил Пуговкин, Михаил Кокшенов, Денис Кмит, Нина Гребешкова, Андрей Толшин, Борислав Брондуков, Луиза Мосендз, Сергей Филиппов, Абессалом Лория, Виктор Уральский, Юрий Попович, Вера Ивлева, Татьяна Игнатова, Надежда Овчарова, Темурмалик Юнусов, Владимир Мышкин, Юрий Осипенко, Виктор Журавлев, Евгений Кочегаров

О фильме:
На один из билетов «Спортлото» выпадает крупный выигрыш. Однако билет оказывается потерянным. В поисках его герои попадают во множество занятных переделок, над которыми зритель веселится от души…




Выпущено: СССР / Мосфильм, Творческое объединение комедийных и музыкальных фильмов
Продолжительность: 01:27:50
Перевод: Не требуется

Файл
Формат: TS
Качество: HDTV 1080i
Видео: MPEG-4 AVC, 10.7 Мбит/с, 1920x1080
Звук: AC3, 6 ch, 384 Кбит/с
 

Media Info:

Общее
Идентификатор : 0 (0x0)
Полное имя : F:Раздача HDСпортлото-82.1982.ts
Формат : MPEG-TS
Размер файла : 7,16 Гбайт
Продолжительность : 1 ч. 27 м.
Режим общего битрейта : Переменный
Общий поток : 11,7 Мбит/сек

Видео
Идентификатор : 305 (0x131)
Идентификатор меню : 20105 (0x4E89)
Формат : AVC
Формат/Информация : Advanced Video Codec
Профиль формата : High@L4.0
Параметр CABAC формата : Да
Параметр ReFrames формата : 3 кадра
Параметр GOP формата : M=4, N=28
Идентификатор кодека : 27
Продолжительность : 1 ч. 27 м.
Битрейт : 10,7 Мбит/сек
Ширина : 1920 пикселей
Высота : 1080 пикселей
Соотношение сторон : 16:9
Частота кадров : 25,000 кадров/сек
Стандарт вещания : Component
Цветовое пространство : YUV
Субдискретизация насыщенности : 4:2:0
Битовая глубина : 8 бит
Тип развёртки : Чересстрочная
Порядок развёртки : Верхнее поле первое
Бит/(Пиксели*Кадры) : 0.207
Размер потока : 6,57 Гбайт (92%)
Основные цвета : BT.709
Характеристики трансфера : BT.709
Коэффициенты матрицы : BT.709

Аудио
Идентификатор : 415 (0x19F)
Идентификатор меню : 20105 (0x4E89)
Формат : AC-3
Формат/Информация : Audio Coding 3
Расширение режима : CM (complete main)
Параметр Endianness формата : Big
Идентификатор кодека : 6
Продолжительность : 1 ч. 27 м.
Вид битрейта : Постоянный
Битрейт : 384 Кбит/сек
Каналы : 6 каналов
Расположение каналов : Front: L C R, Side: L R, LFE
Частота : 48,0 КГц
Битовая глубина : 16 бит
Метод сжатия : С потерями
Задержка видео : -13 мс.
Размер потока : 241 Мбайт (3%)
Язык : Russian
Язык, дополнительно : Clean effects
Интересно:

• Занимает по посещаемости 25-е место среди отечественных фильмов за всю историю советского кинопроката.
• Игровая комбинация, выбранная героиней фильма (1,2,3,4,5,6), была представлена зрителю, как «самая редкая» или «невероятная». На самом деле, с точки зрения комбинаторики, эта комбинация такая же обычная, как и любая другая, она имеет такие же шансы на выпадение, как и любая другая комбинация.
• Большой прямоугольный камень, который обходит Сан Саныч и орех, с которого Никулин бросался грушами («Орех Никулина») из другого фильма Гайдая — «Кавказская пленница, или Новые приключения Шурика»; находятся на расстоянии нескольких метров друг от друга.
Скриншоты

Статистика торрента
Раздают: 386 Качают: 2 Размер: 7.16GB Скачали: 21
Имя файла: 39045_-rutor.org-Spor.torrent
Похожие торренты
Отзывы пользователей
Добавить отзыв