6.56GB / Фантомас 1-2-3 / Fantomas (Антология) (Андре Юнебель) [1964-1967, комедия, криминал, приключения, HDRip-AVC]

Категория: фильмы » Комедии
рейтинг из 5
  • Добавил: zlidny
  • Дата: 11/09/14, 13:08:24
  • Просмотры: 523
  • Отзывы: 0
?????
Название игры:
Год выхода игры:
Жанр игры: Криминал, Приключения, Комедии

Формат: HDRip-AVC, MKV, H.264, AC3/AAC
Страна: Франция, Италия
Режиссер: Андре Юнебель
Жанр: комедия, криминал, приключения
Год выпуска: 1964-1967

В ролях: Луи Де Фюнес, Жан Маре, Милен Демонже, Жак Динам, Мари-Элен Арно, Кристиан Тома, Альберт Даньян, Оливье Де Фюнес, Жан-Роже Коссимон, Робер Дальбан, Анн-Мари Пейссон, Мишель Дюпле, Франсуаза Кристоф, Андре Дюма, Макс Монтавон, Рита Ренуар, Жан Озенн

Описание: «Фантома́с» (фр. Fantômas) — французская приключенческая кинокомедия режиссёра Андре Юнебеля, снятая по мотивам авантюрных романов Пьера Сувестра и Марселя Аллена. Первая часть трилогии о приключениях преступника Фантомаса.
В советский кинопрокат фильм вышел летом 1967 года в дубляже киностудии «Союзмультфильм».
Один из классических французских шедевров — до сих пор эталонный и почти не превзойденный комедийный приключенческий боевик, практически стоявший у истоков жанра. Фильм совершенно культовый во всех отношениях — оглушительный успех во всем мире, 2 сиквела, целая куча подражателей и последователей!
А главное — фильм стал настоящей бомбой для советского проката, взрывом, на много-много лет определившим главные симпатии советского зрителя, между американским и французским кино с тех пор выбиравшего французское. Фильм стал не просто вехой в истории кино, он был насыщен настолько потрясающими для того времени съемками, эффектами, наполнен настолько запоминающимися и блестяще воплощенными на экране характерами, что дети всего мира играли в Фантомаса, а взрослые раскупали книги и не уставали восхищаться захватывающей дух красотой фильма.
Для советского зрителя эти роскошные дворцы, многомиллионной стоимости драгоценности, костюмы, прически, парки и автомобили становились предметами вожделения, несбыточной мечтой, красивой сказкой…



Рип: jeenart

 

Фантомас / 1964 г.

Фантомас / Fantômas

 

Перевод: Профессиональный (полное дублирование), cубтитры: отсутствуют
Формат: HDRip-AVC, MKV, H.264, AC3
Страна: Франция, Италия
Режиссер: Андре Юнебель
Жанр: комедия, криминал, приключения
Продолжительность: 01:44:16
Год выпуска: 1964

В ролях: Луи Де Фюнес, Жан Маре, Милен Демонже, Жак Динам, Мари-Элен Арно, Кристиан Тома, Альберт Даньян, Оливье Де Фюнес, Жан-Роже Коссимон, Робер Дальбан

Описание: Первый фильм трилогии о невероятных приключениях комиссара Жюва, преследующего неуловимого преступника Фантомаса. Париж потрясен сенсационными и дерзкими преступлениями, совершенными таинственным злодеем по имени Фантомас. На его поимку брошены все силы полиции, но Фантомас практически неуловим — он все время меняет облик, ловко ускользая из рук правосудия. Напасть на его след удается только комиссару Жюву с помощью Элен, подруги похищенного журналиста Фандора..



Видео: 1280 x 544 (2.35:1), 24.000 fps, AVC (х264) High@L4.1, ~ 2591 Kbps, 0.155 bit/pixel
Аудио: #1: русский 48 kHz, AC3 Dolby Digital, 2/0 (L,R) ch, ~192 kbps avg [Профессиональный (полное дублирование)]
Аудио: #2: русский 48 kHz, A_AAC, LC, 2/0 (L,R) ch, ~220 kbps avg [Профессиональный (многоголосый закадровый)]


Рип: jeenart

 
Интересные факты
 
  • В основу фильмов о Фантомасе («Фантомас», «Фантомас разбушевался», Фантомас против Скотленд Ярда') положена бульварная серия комиксов, выпущенная в начале 20 века.
     
  • Премьера в США состоялась лишь спустя 1,5 года - 5 апреля 1966 года.
     
  • «Фантомасы» - прозвище, которое получила надевавшая во время ограблений черные чулки банда братьев Толстопятовых, действовавшая в Ростове-на-Дону.
     
  • «Фантомас» 1964-го года - четвертая экранизация произведения о неуловимом преступнике. Режиссер Луи Фейад первым решился экранизировать произведение Пьера Сувестра и Марселя Аллена в 1913 году. Его экранизация представляла собой серию немых часовых фильмов - «Жюв против Фантомаса», «Человек для гильотины»,«Человек, который убивает» и др.
     
  • Показ этого фильма в СССР привел к некоторым эксцессам в подростковой среде. Это было обусловлено тем, что в то время в советском прокате отсутствовали криминальные боевики, и подростки восприняли комедийный «Фантомас» слишком серьезно.
     
  • После кражи драгоценностей Жюв устремляется в погоню за Фантомасом. Фантомас вскакивает на подъёмный кран, а Жюв успевает схватиться всего лишь за крюк. Фантомас с помощью дистанционного пульта опускает крюк вниз, а сам убегает на вертолёте. В вертолёт он попадает с помощью верёвочной лестницы. На сколько позволяет экран, мы видим, что данный эпизод происходит днём. Но когда Фантомаса снимают из вертолёта, мы видим за его спиной Париж, освещённый лучами заходящего солнца.
     
  • В конце фильма на помощь Фандору и тонущёму Жюву приходит, точнее, приплывает на надувной лодке Элен. Фандор благополучно садится в лодку, и вместе с Элен пытается вытащить Жюва, когда неожиданно лодка переворачивается, и Элен с Фандором тоже оказываются в воде. Далее следует наплыв, и мы видим снова сидящихся в лодке Элен и Фандора, пытающихся вытащить Жюва, что им в этот раз удаётся. Однако платье Элен и костюм Фандора абсолютно сухие.
     
  • В Италии фильм вышел под названием «Фантомас-70».
     
Отчёт MediaInfo
General
Unique ID : 223081863431818685868963056214065030552 (0xA7D4010B9A7AA5249AFD05BD3D442598)
Complete name : F:\Fantomas.1-3.1964-1967.HDRip-AVC.H.264.2,18 Gb.RG.Films\1.Fantomas.1964.HDRip-AVC.H.264.2,18 Gb.RG.Films.mkv
Format : Matroska
Format version : Version 2
File size : 2.19 GiB
Duration : 1h 44mn
Overall bit rate : 3 005 Kbps
Encoded date : UTC 2014-08-30 10:46:36
Writing application : mkvmerge v5.8.0 ('No Sleep / Pillow') built on Sep 2 2012 15:37:04
Writing library : libebml v1.2.3 + libmatroska v1.3.0

Video
ID : 1
Format : AVC
Format/Info : Advanced Video Codec
Format profile : High@L4.1
Format settings, CABAC : Yes
Format settings, ReFrames : 8 frames
Muxing mode : Header stripping
Codec ID : V_MPEG4/ISO/AVC
Duration : 1h 44mn
Nominal bit rate : 2 591 Kbps
Width : 1 280 pixels
Height : 544 pixels
Display aspect ratio : 2.35:1
Frame rate mode : Constant
Frame rate : 24.000 fps
Color space : YUV
Chroma subsampling : 4:2:0
Bit depth : 8 bits
Scan type : Progressive
Bits/(Pixel*Frame) : 0.155
Writing library : x264 core 125 r2208 d9d2288
Encoding settings : cabac=1 / ref=8 / deblock=1:-1:-1 / analyse=0x3:0x133 / me=umh / subme=11 / psy=1 / psy_rd=1.00:0.10 / mixed_ref=1 / me_range=24 / chroma_me=1 / trellis=2 / 8x8dct=1 / cqm=0 / deadzone=21,11 / fast_pskip=0 / chroma_qp_offset=-3 / threads=12 / lookahead_threads=2 / sliced_threads=0 / nr=0 / decimate=1 / interlaced=0 / bluray_compat=0 / constrained_intra=0 / bframes=3 / b_pyramid=2 / b_adapt=2 / b_bias=0 / direct=3 / weightb=1 / open_gop=0 / weightp=2 / keyint=250 / keyint_min=23 / scenecut=40 / intra_refresh=0 / rc_lookahead=50 / rc=2pass / mbtree=1 / bitrate=2591 / ratetol=1.0 / qcomp=0.60 / qpmin=0 / qpmax=69 / qpstep=4 / cplxblur=20.0 / qblur=0.5 / ip_ratio=1.40 / aq=1:1.00
Default : Yes
Forced : No

Audio #1
ID : 2
Format : AC-3
Format/Info : Audio Coding 3
Mode extension : CM (complete main)
Format settings, Endianness : Big
Muxing mode : Header stripping
Codec ID : A_AC3
Duration : 1h 44mn
Bit rate mode : Constant
Bit rate : 192 Kbps
Channel(s) : 2 channels
Channel positions : Front: L R
Sampling rate : 48.0 KHz
Bit depth : 16 bits
Compression mode : Lossy
Stream size : 143 MiB (6%)
Default : Yes
Forced : No

Audio #2
ID : 3
Format : AAC
Format/Info : Advanced Audio Codec
Format profile : LC
Codec ID : A_AAC
Duration : 1h 44mn
Channel(s) : 2 channels
Channel positions : Front: L R
Sampling rate : 48.0 KHz
Compression mode : Lossy
Delay relative to video : 9ms
Default : No
Forced : No
Фантомас разбушевался / 1965 г.

Фантомас разбушевался / Fantômas se déchaîne

 

Перевод: Профессиональный (полное дублирование), cубтитры: отсутствуют
Формат: HDRip-AVC, MKV, H.264, AC3
Страна: Франция, Италия
Режиссер: Андре Юнебель
Жанр: комедия, криминал, приключения
Продолжительность: 01:38:49
Год выпуска: 1965

В ролях: Луи Де Фюнес, Жан Маре, Милен Демонже, Жак Динам, Робер Дальбан, Мари-Элен Арно, Анн-Мари Пейссон, Кристиан Тома, Мишель Дюпле, Оливье Де Фюнес

Описание: Спустя год после того, как комиссар Жюв и репортер Фандор упустили Фантомаса, суперпреступник вновь дал о себе знать, похитив известного ученого. Следующей жертвой должен стать его помощник, профессор Лефевр. Фандор, выдавая себя за профессора, едет в Рим и… попадает прямо в руки Фантомаса. Спеша на выручку, Жюв и Элен сами попадают в ловушку. Теперь приходится думать, как спасаться самим и сбежать из логова Фантомаса.. .



Видео: 1280 x 544 (2.35:1), 23.976 fps, AVC (х264) High@L4.1, ~ 2750 Kbps, 0.165 bit/pixel
Аудио: #1: русский 48 kHz, AC3 Dolby Digital, 2/0 (L,R) ch, ~192 kbps avg [Профессиональный (полное дублирование)]
Аудио: #2: русский 48 kHz, AC3 Dolby Digital, 2/0 (L,R) ch, ~224 kbps avg [Профессиональный (многоголосый закадровый)]


Рип: jeenart

 
Интересные факты
 
  • Начальные титры идут на фоне коротких мультзарисовок, показывающих эпизоды из первого фильма.
     
  • Во время съёмок финальной сцены Луи де Фюнес, выполняя трюк сам, выпал из аэроплана на кусты роз. Неделю великий комик провёл в больнице. И после этого выполнять трюки в фильмах о Фантомасе поручал дублёрам.
     
  • В качестве летающего автомобиля Фантомаса в фильме использовался Citroën DS.
     
  • Впоследствии на российском телевидении фильм выходил также под названием «Фантомас против Интерпола» (оригинальное название переводится как «Фантомас неистовствует»).
     
  • В фильме присутствуют имена и образы известных ученых. Фамилия одного из похищенных Фантомасом ученых — Лагранж. Профессор Лефевр похож на слегка спародированнго Эйнштейна.
     
  • «Фальшивые руки» присутствуют в романе «Жюв против Фантомаса». Там их применение позволяет Фантомасу удрать от схвативших его Жюва и Фандора.
     
  • Один из постояльцев отеля (Мишель Томас) в Италии говорит на чистом русском языке (00:36:39). Те, кто смотрел нерусскоязычные версии фильма, уже убедились в этом. Если же есть сомнения, то можно проследить за артикуляцией актёра, исполняющего эту роль. Примечательно, что этот же актер играет в третьей части трилогии «Фантомас против Скотланд-Ярда» махараджу Кемпуры, который тоже говорит по-русски.
     
Отчёт MediaInfo
General
Unique ID : 253249229154166601345052678142080377775 (0xBE86070283659AA092F6ECF12B84E3AF)
Complete name : F:\Fantomas.1-3.1964-1967.HDRip-AVC.H.264.2,18 Gb.RG.Films\2.Fantomas.1965.HDRip-AVC.H.264.2,18 Gb.RG.Films.mkv
Format : Matroska
Format version : Version 2
File size : 2.19 GiB
Duration : 1h 38mn
Overall bit rate : 3 167 Kbps
Encoded date : UTC 2014-08-30 15:07:24
Writing application : mkvmerge v5.8.0 ('No Sleep / Pillow') built on Sep 2 2012 15:37:04
Writing library : libebml v1.2.3 + libmatroska v1.3.0

Video
ID : 1
Format : AVC
Format/Info : Advanced Video Codec
Format profile : High@L4.1
Format settings, CABAC : Yes
Format settings, ReFrames : 8 frames
Muxing mode : Header stripping
Codec ID : V_MPEG4/ISO/AVC
Duration : 1h 38mn
Bit rate : 2 750 Kbps
Width : 1 280 pixels
Height : 544 pixels
Display aspect ratio : 2.35:1
Frame rate mode : Constant
Frame rate : 23.976 fps
Color space : YUV
Chroma subsampling : 4:2:0
Bit depth : 8 bits
Scan type : Progressive
Bits/(Pixel*Frame) : 0.165
Stream size : 1.86 GiB (85%)
Writing library : x264 core 125 r2208 d9d2288
Encoding settings : cabac=1 / ref=8 / deblock=1:-1:-1 / analyse=0x3:0x133 / me=umh / subme=11 / psy=1 / psy_rd=1.00:0.10 / mixed_ref=1 / me_range=24 / chroma_me=1 / trellis=2 / 8x8dct=1 / cqm=0 / deadzone=21,11 / fast_pskip=0 / chroma_qp_offset=-3 / threads=12 / lookahead_threads=2 / sliced_threads=0 / nr=0 / decimate=1 / interlaced=0 / bluray_compat=0 / constrained_intra=0 / bframes=3 / b_pyramid=2 / b_adapt=2 / b_bias=0 / direct=3 / weightb=1 / open_gop=0 / weightp=2 / keyint=250 / keyint_min=23 / scenecut=40 / intra_refresh=0 / rc_lookahead=50 / rc=2pass / mbtree=1 / bitrate=2750 / ratetol=1.0 / qcomp=0.60 / qpmin=0 / qpmax=69 / qpstep=4 / cplxblur=20.0 / qblur=0.5 / ip_ratio=1.40 / aq=1:1.00
Default : Yes
Forced : No

Audio #1
ID : 2
Format : AC-3
Format/Info : Audio Coding 3
Mode extension : CM (complete main)
Format settings, Endianness : Big
Muxing mode : Header stripping
Codec ID : A_AC3
Duration : 1h 38mn
Bit rate mode : Constant
Bit rate : 192 Kbps
Channel(s) : 2 channels
Channel positions : Front: L R
Sampling rate : 48.0 KHz
Bit depth : 16 bits
Compression mode : Lossy
Stream size : 136 MiB (6%)
Default : Yes
Forced : No

Audio #2
ID : 3
Format : AC-3
Format/Info : Audio Coding 3
Mode extension : CM (complete main)
Format settings, Endianness : Big
Muxing mode : Header stripping
Codec ID : A_AC3
Duration : 1h 38mn
Bit rate mode : Constant
Bit rate : 224 Kbps
Channel(s) : 2 channels
Channel positions : Front: L R
Sampling rate : 48.0 KHz
Bit depth : 16 bits
Compression mode : Lossy
Stream size : 158 MiB (7%)
Default : No
Forced : No
Фантомас против Скотланд-Ярда / 1967 г.

Фантомас против Скотланд-Ярда / Fantômas contre Scotland Yard

 

Перевод: Профессиональный (полное дублирование), cубтитры: отсутствуют
Формат: HDRip-AVC, MKV, H.264, AC3
Страна: Франция, Италия
Режиссер: Андре Юнебель
Жанр: комедия, криминал, приключения
Продолжительность: 01:40:59
Год выпуска: 1967

В ролях: Жан Маре, Луи де Фюнес, Милен Демонжо, Франсуаза Кристоф, Жан-Роже Коссимон, Робер Дальбан, Андре Дюма, Макс Монтавон, Рита Ренуар, Жан Озенн

Описание: На этот раз злодей с тысячью лицами решает обложить данью богатейших людей мира, а взамен гарантирует им жизнь. Комиссар Жюв со своими верными друзьями, Фандором и Элен, прибывает в шотландский замок для того, чтобы встать на защиту его владельца и снова попытаться поймать Фантомаса.. .



Видео: 1280 x 544 (2.35:1), 23.976 fps, AVC (х264) High@L4.1, ~ 2682 Kbps, 0.161 bit/pixel
Аудио: #1: русский 48 kHz, AC3 Dolby Digital, 2/0 (L,R) ch, ~192 kbps avg [Профессиональный (полное дублирование)]
Аудио: #2: русский 48 kHz, AC3 Dolby Digital, 2/0 (L,R) ch, ~224 kbps avg [Профессиональный (многоголосый закадровый)]


Рип: jeenart

 
Интересные факты
 
  • Махараджа Кемпуры на совещании у лорда Макрэшли говорит на русском языке (00:13:28, 00:14:34). При показе в Советском Союзе этот эпизод, как и некоторые другие, был переделан (Магараджа говорил уже не по-русски). Этот же актёр играет во второй части трилогии «Фантомас разбушевался» постояльца в отеле, который тоже говорит по-русски.
     
  • После «Фантомаса против Скотланд-Ярда» создатели фильма планировали снять продолжение, к тому же примечательно, что действие четвёртого фильма должно было происходить в Москве. Однако возникли трудности с финансированием, и съёмки четвёртой части так и не состоялись. Данный факт описывался в передаче «Двое против Фантомаса. Де Фюнес — Кенигсон», вышедшей на телеканале РТР-Планета 25 марта 2010 года.
     
  • «Лицо» Уолтера Брауна — это «маска» лорда Шелтона, подставного покупателя драгоценностей из фильма «Фантомас», а «Лицо» гангстера Джузеппе — маска маркиза де Растелли из фильма «Фантомас разбушевался». Всех этих персонажей играет Жан Маре.
     
  • «Шотландский замок лорда Макрэшли» снимался на юго-западе Франции — это замок Роктайад в деревне Мазер примерно в 55 километрах к юго-востоку от Бордо. Кроме «Фантомаса», в этом замке также снимался фильм «Братство волка».
     
  • Один из телохранителей Фантомаса был убит из стреляющей сигары в фильме «Фантомас разбушевался», однако он опять появляется в третьем фильме. Его опять играет актер Доминик Зарди.
     
  • Руль в автомобиле Фантомаса, Rolls-Royce Silver Cloud с регистрационным номером 309 HWR, почему то слева. Хотя общеизвестно, что все автомобили в Шотландии с правосторонним рулем. Впрочем, как и на старинном желтом пикапе с номером NJL 204, на котором слуга Годфри встречает инспектора Жюва и его спутников.
     
Отчёт MediaInfo
General
Unique ID : 213833731938918661245531735657026909406 (0xA0DEE0F58186A80A85AE4FA2735374DE)
Complete name : F:\Fantomas.1-3.1964-1967.HDRip-AVC.H.264.2,18 Gb.RG.Films\3.Fantomas.1967.HDRip-AVC.H.264.2,18 Gb.RG.Films.mkv
Format : Matroska
Format version : Version 2
File size : 2.19 GiB
Duration : 1h 40mn
Overall bit rate : 3 099 Kbps
Encoded date : UTC 2014-08-30 19:46:20
Writing application : mkvmerge v5.8.0 ('No Sleep / Pillow') built on Sep 2 2012 15:37:04
Writing library : libebml v1.2.3 + libmatroska v1.3.0

Video
ID : 1
Format : AVC
Format/Info : Advanced Video Codec
Format profile : High@L4.1
Format settings, CABAC : Yes
Format settings, ReFrames : 8 frames
Muxing mode : Header stripping
Codec ID : V_MPEG4/ISO/AVC
Duration : 1h 40mn
Bit rate : 2 682 Kbps
Width : 1 280 pixels
Height : 544 pixels
Display aspect ratio : 2.35:1
Frame rate mode : Constant
Frame rate : 23.976 fps
Color space : YUV
Chroma subsampling : 4:2:0
Bit depth : 8 bits
Scan type : Progressive
Bits/(Pixel*Frame) : 0.161
Stream size : 1.85 GiB (85%)
Writing library : x264 core 125 r2208 d9d2288
Encoding settings : cabac=1 / ref=8 / deblock=1:-1:-1 / analyse=0x3:0x133 / me=umh / subme=11 / psy=1 / psy_rd=1.00:0.10 / mixed_ref=1 / me_range=24 / chroma_me=1 / trellis=2 / 8x8dct=1 / cqm=0 / deadzone=21,11 / fast_pskip=0 / chroma_qp_offset=-3 / threads=12 / lookahead_threads=2 / sliced_threads=0 / nr=0 / decimate=1 / interlaced=0 / bluray_compat=0 / constrained_intra=0 / bframes=3 / b_pyramid=2 / b_adapt=2 / b_bias=0 / direct=3 / weightb=1 / open_gop=0 / weightp=2 / keyint=250 / keyint_min=23 / scenecut=40 / intra_refresh=0 / rc_lookahead=50 / rc=2pass / mbtree=1 / bitrate=2682 / ratetol=1.0 / qcomp=0.60 / qpmin=0 / qpmax=69 / qpstep=4 / cplxblur=20.0 / qblur=0.5 / ip_ratio=1.40 / aq=1:1.00
Default : Yes
Forced : No

Audio #1
ID : 2
Format : AC-3
Format/Info : Audio Coding 3
Mode extension : CM (complete main)
Format settings, Endianness : Big
Muxing mode : Header stripping
Codec ID : A_AC3
Duration : 1h 40mn
Bit rate mode : Constant
Bit rate : 192 Kbps
Channel(s) : 2 channels
Channel positions : Front: L R
Sampling rate : 48.0 KHz
Bit depth : 16 bits
Compression mode : Lossy
Stream size : 139 MiB (6%)
Default : Yes
Forced : No

Audio #2
ID : 3
Format : AC-3
Format/Info : Audio Coding 3
Mode extension : CM (complete main)
Format settings, Endianness : Big
Muxing mode : Header stripping
Codec ID : A_AC3
Duration : 1h 40mn
Bit rate mode : Constant
Bit rate : 224 Kbps
Channel(s) : 2 channels
Channel positions : Front: L R
Sampling rate : 48.0 KHz
Bit depth : 16 bits
Compression mode : Lossy
Stream size : 162 MiB (7%)
Default : No
Forced : No

Статистика торрента
Раздают: 315 Качают: 163 Размер: 6.56GB Скачали: 20
Имя файла: 37616_Fantomas.1-3.19.torrent
Похожие торренты
Отзывы пользователей
Добавить отзыв