5.33GB / Последний из Магикян [02х01-16 из 16] (2013) DVDRip от New-Team | лицензия

Категория: фильмы » Комедии
рейтинг из 5
  • Добавил: zlidny
  • Дата: 29/07/14, 14:16:05
  • Просмотры: 158
  • Отзывы: 0
?????
Название игры:
Год выхода игры:
Жанр игры: Комедии

Страна: Россия / Yellow, Black & White

Жанр: комедия, семейный
Год выпуска: 2013
Продолжительность: 00:24:00 / серия

Перевод: Не требуется
Cубтитры: нет
Оригинальная аудиодорожка: русский

Режиссер: Резо Гигинеишвили, Акаки Сахелашвили

В ролях: Грант Тохатян, Анна Ардова, Андрей Бурковский, Элен Касьяник, Алина Гринберг, Луиза-Габриэла Бровина, Баймурат Аллабериев, Наталия Вдовина, Александр Феклистов, Амина Хасанова...

Описание: Карену Магикяну почти 50 лет. Он — глава семьи и отец трех дочерей. В этом возрасте люди уже не меняются. Он давно сформулировал законы и правила, по которым живет, и нарушать ничего не собирается. Ему-то самому кажется, что за последние 10-15 лет он ничуть не изменился, ни капельки не постарел. Более того — он считает себя вполне современным человеком, хотя у него мобильный телефон с черно-белым экраном и нет электронной почты.
Вот это, кстати, его раздражает особенно сильно — с чего все вокруг сходят с ума по этим гаджетам, айпэдам, айфонам. Почему младшая дочь, вернувшись из школы, сразу идет в интернет, а не поцеловать папу? «Общаться» — это же значит сидеть за столом, пить вино и разговаривать, а не пялиться в экран компьютера и портить себе глаза.
Он не понимает современных отношений. Как у дочери может остаться ночевать парень, когда они не женаты? И его не волнуют уверения жены, что «сейчас все так делают». Пусть так делают все, но не в его семье! Он кавказец, у него есть принципы!
Карен — «Последний из Магикян». И не только потому, что у него три дочери, а наследника в таком возрасте явно не предвидится. Он — представитель исчезающего вида людей, которые никогда не разговаривали по скайпу, для которых письмо — это исписанная буквами бумага в конверте, а самое главное — которые не прогибаются под меняющийся мир, потому что «сейчас так принято» и «ты живешь в 21 веке». Зрители помладше должны узнать в нем своих родителей, зрители постарше должны в нем узнать себя.


 


Качество: DVDRip / 2 x DVD9 R5 - лицензионные диски от "CD Land"

Формат: AVI

Видео: 720x400 (16:9), 25.000 fps, XviD ~ 1800 kbps avg, 0.250 bit/pixel
Аудио: 48 kHz, Dolby AC3, 2 ch, 192 kbps, русский

Раздача от:
 

MediaInfo

Общее
Полное имя : Posledniy.iz.Mogikyan.2013.O.DVDRip_[New_Team]_by_Avproh1.avi
Формат : AVI
Формат/Информация : Audio Video Interleave
Размер файла : 349 Мбайт
Продолжительность : 24 м.
Общий поток : 2002 Кбит/сек
Программа кодирования : VirtualDubModRus 1.5.10.2 (build 2542/release)
Библиотека кодирования : VirtualDubMod build 2542/release

Видео
Идентификатор : 0
Формат : MPEG-4 Visual
Профиль формата : Advanced Simple@L5
Параметр BVOP формата : 1
Параметр QPel формата : Нет
Параметр GMC формата : Без точки перехода
Параметр матрицы формата : Выборочная
Идентификатор кодека : XVID
Идентификатор кодека/Подсказка : XviD
Продолжительность : 24 м.
Битрейт : 1800 Кбит/сек
Ширина : 720 пикселей
Высота : 400 пикселей
Соотношение сторон : 16:9
Частота кадров : 25,000 кадров/сек
Цветовое пространство : YUV
Субдискретизация насыщенности : 4:2:0
Битовая глубина : 8 бит
Тип развёртки : Прогрессивная
Метод сжатия : С потерями
Бит/(Пиксели*Кадры) : 0.250
Размер потока : 313 Мбайт (90%)
Библиотека кодирования : XviD 73

Аудио
Идентификатор : 1
Формат : AC-3
Формат/Информация : Audio Coding 3
Расширение режима : CM (complete main)
Параметр Endianness формата : Big
Идентификатор кодека : 2000
Продолжительность : 24 м.
Вид битрейта : Постоянный
Битрейт : 192 Кбит/сек
Каналы : 2 канала
Расположение каналов : Front: L R
Частота : 48,0 КГц
Битовая глубина : 16 бит
Метод сжатия : С потерями
Размер потока : 33,4 Мбайт (10%)
Выравнивание : Разделение по промежуткам
Продолжительность промежутка : 40 мс. (1,00 видеокадр)
Время предзагрузки промежутка : 500 мс.

 

Скриншоты:



Статистика торрента
Раздают: 14 Качают: 198 Размер: 5.33GB Скачали: 17
Имя файла: 36406_-rutor.org-Posl.torrent
Похожие торренты
Отзывы пользователей
Добавить отзыв