4.68GB / Мисс Бабуля / Su-sang-han geu-nyeo / Miss Granny (2014) BDRip 720p от ExKinoRay | L2

Категория: фильмы » Комедии
рейтинг из 5
  • Добавил: zlidny
  • Дата: 19/07/14, 11:30:45
  • Просмотры: 228
  • Отзывы: 0
?????
Название игры:
Год выхода игры:
Жанр игры: Комедии

Название: Мисс Бабуля
Оригинальное название: Miss Granny (Su-sang-han geu-nyeo)
Год выпуска: 2014
Жанр: Комедия
Выпущено: Южная Корея, CJ Entertainment, Yeinplus Entertainment
Режиссер: Дон Хёк Хван
В ролях: Ын Кён Шим, Мун Хи На, Чжин Ён Чон, Ин Хван Пак, Дон Иль Сон, Чжин Ук Ли, Ин Ги Чон, Сыль Ги Ким, Су Хён Ким, Ён Чжу Ха, Хэ Джин Пак

О фильме: О Мал Сун — 74-летняя вдова, начинает понимать, что становится обузой для своей семьи. Бродя по улицам, она попадает в таинственную фотостудию, владелец которой утверждает, что ему подвластно запечатлеть момент расцвета молодости. Когда Малсун выходит из фотостудии, она загадочным образом возвращается в свой 20-летний возраст. Воспользовавшись возможностью, выпадающей раз в жизни, она меняет своё имя на О Ду-ри (в честь любимой актрисы Одри Хепберн) и решает использовать все преимущества молодости.



Файл
Качество: BDRip (720p)
Видео: MPEG-4 AVC, 4802 Кбит/с, 1280x692
Аудио: Русский (АС3, 2 ch, 192 Кбит/с), корейский (АС3, 6 ch, 384 Кбит/с)
Продолжительность: 02:04:54
Перевод: Любительский двухголосый
Субтитры: Английские

Спасибо за видеоряд: CHD
Сборка релиза: Enigma
Перевод: Виктория Широкова

Работа со звуком: Ольга Гринтиева
Озвучивание: Ольга Гринтиева и Константин Романов ("GREEN TEA")
 

MI
General
Unique ID : 246361551338252486664753929671005191266 (0xB957824667D1DDE9800B9EA7ED043C62)
Complete name : C:Miss.Granny.2014.L.BDRip.720p.ExKinoRay.mkv
Format : Matroska
Format version : Version 2
File size : 4.68 GiB
Duration : 2h 4mn
Overall bit rate : 5 365 Kbps
Movie name : Miss Granny 2014 from ExKinoRay
Encoded date : UTC 2014-07-19 02:34:41
Writing application : mkvmerge v4.9.1 ('Ich will') built on Jul 11 2011 23:53:15
Writing library : libebml v1.2.1 + libmatroska v1.1.1

Video
ID : 1
Format : AVC
Format/Info : Advanced Video Codec
Format profile : High@L4.1
Format settings, CABAC : Yes
Format settings, ReFrames : 9 frames
Codec ID : V_MPEG4/ISO/AVC
Duration : 2h 4mn
Bit rate : 4 802 Kbps
Width : 1 280 pixels
Height : 692 pixels
Display aspect ratio : 1.85:1
Frame rate mode : Constant
Frame rate : 23.976 fps
Color space : YUV
Chroma subsampling : 4:2:0
Bit depth : 8 bits
Scan type : Progressive
Bits/(Pixel*Frame) : 0.226
Stream size : 4.09 GiB (87%)
Writing library : x264 core 142 r2431 ac76440
Encoding settings : cabac=1 / ref=9 / deblock=1:-3:-3 / analyse=0x3:0x113 / me=umh / subme=10 / psy=1 / psy_rd=1.00:0.05 / mixed_ref=1 / me_range=32 / chroma_me=1 / trellis=2 / 8x8dct=1 / cqm=0 / deadzone=21,11 / fast_pskip=0 / chroma_qp_offset=-2 / threads=18 / lookahead_threads=1 / sliced_threads=0 / nr=0 / decimate=1 / interlaced=0 / bluray_compat=0 / constrained_intra=0 / bframes=4 / b_pyramid=2 / b_adapt=2 / b_bias=0 / direct=3 / weightb=1 / open_gop=0 / weightp=2 / keyint=250 / keyint_min=23 / scenecut=40 / intra_refresh=0 / rc=2pass / mbtree=0 / bitrate=4802 / ratetol=1.0 / qcomp=0.70 / qpmin=0 / qpmax=69 / qpstep=4 / cplxblur=20.0 / qblur=0.5 / ip_ratio=1.40 / pb_ratio=1.30 / aq=2:0.90
Language : English
Default : Yes
Forced : No

Audio #1
ID : 2
Format : AC-3
Format/Info : Audio Coding 3
Mode extension : CM (complete main)
Format settings, Endianness : Big
Codec ID : A_AC3
Duration : 2h 4mn
Bit rate mode : Constant
Bit rate : 192 Kbps
Channel(s) : 2 channels
Channel positions : Front: L R
Sampling rate : 48.0 KHz
Bit depth : 16 bits
Compression mode : Lossy
Stream size : 172 MiB (4%)
Title : GREEN TEA
Language : Russian
Default : No
Forced : No

Audio #2
ID : 3
Format : AC-3
Format/Info : Audio Coding 3
Mode extension : CM (complete main)
Format settings, Endianness : Big
Codec ID : A_AC3
Duration : 2h 4mn
Bit rate mode : Constant
Bit rate : 384 Kbps
Channel(s) : 6 channels
Channel positions : Front: L C R, Side: L R, LFE
Sampling rate : 48.0 KHz
Bit depth : 16 bits
Compression mode : Lossy
Stream size : 343 MiB (7%)
Language : Korean
Default : No
Forced : No

Text
ID : 4
Format : UTF-8
Codec ID : S_TEXT/UTF8
Codec ID/Info : UTF-8 Plain Text
Language : English
Default : No
Forced : No
 

 

Скриншоты




Релиз от:


Статистика торрента
Раздают: 129 Качают: 40 Размер: 4.68GB Скачали: 12
Имя файла: 36061_-rutor.org-Miss.torrent
Похожие торренты
Отзывы пользователей
Добавить отзыв