3.81GB / Красотки в Париже / Sous les jupes des filles (2014) WEB-DL 720p | P

Категория: фильмы » Комедии
рейтинг из 5
  • Добавил: zlidny
  • Дата: 05/09/14, 11:10:08
  • Просмотры: 204
  • Отзывы: 0
?????
Название игры:
Год выхода игры:
Жанр игры: Комедии

Название: Красотки в Париже
Оригинальное название: Sous les jupes des filles
Год выхода: 2014
Жанр: комедия
Режиссер: Одри Дана
В ролях: Ванесса Паради, Изабель Аджани, Летиция Каста, Сильви Тестю, Жеральдин Накаш, Жюли Феррье, Марина Андс, Алис Тальони

О фильме: Париж. Любовь. И, конечно, француженки: свободные, непредсказуемые, изысканные и страстные. Сегодня они решили раскрыть свои секреты и поделиться желаниями. Это комедия о любви, сексе и поцелуях, о том, чего и кого хотят женщины.



Выпущено: Франция / Fidelite Films, M6, M6 Films, Orange Cinema Series, Wild Bunch
Продолжительность: 01:56:01
Озвучивание: Профессиональное (многоголосое)
Примечание: Присутствуют вшитые русские субтитры.

Файл
Формат: MKV (H.264)
Качество: WEBDL 720p
Видео: 4037 Kb/s, 1280x536
Аудио: Russian: AC3, 192 Kb/s (2 ch) / French: AC3, 384 kb/s (6 ch)
 




 

MI

Format : Matroska
Format version : Version 4 / Version 2
File size : 3.81 GiB
Duration : 1h 56mn
Overall bit rate : 4 706 Kbps
Encoded date : UTC 2014-09-04 18:26:34
Writing application : mkvmerge v6.9.1 ('Blue Panther') 64bit built on Apr 18 2014 18:23:38
Writing library : libebml v1.3.0 + libmatroska v1.4.1

Video
ID : 1
Format : AVC
Format/Info : Advanced Video Codec
Format profile : Main@L3.1
Format settings, CABAC : No
Format settings, ReFrames : 2 frames
Codec ID : V_MPEG4/ISO/AVC
Duration : 1h 56mn
Bit rate : 4 037 Kbps
Width : 1 280 pixels
Height : 536 pixels
Display aspect ratio : 2.40:1
Frame rate : 24.000 fps
Color space : YUV
Chroma subsampling : 4:2:0
Bit depth : 8 bits
Scan type : Progressive
Bits/(Pixel*Frame) : 0.245
Stream size : 3.27 GiB (86%)
Language : English
Default : Yes
Forced : No
Color primaries : BT.709-5, BT.1361, IEC 61966-2-4, SMPTE RP177
Transfer characteristics : BT.709-5, BT.1361
Matrix coefficients : BT.709-5, BT.1361, IEC 61966-2-4 709, SMPTE RP177

Audio #1
ID : 2
Format : AC-3
Format/Info : Audio Coding 3
Mode extension : CM (complete main)
Format settings, Endianness : Big
Codec ID : A_AC3
Duration : 1h 56mn
Bit rate mode : Constant
Bit rate : 192 Kbps
Channel(s) : 2 channels
Channel positions : Front: L R
Sampling rate : 48.0 KHz
Bit depth : 16 bits
Compression mode : Lossy
Stream size : 159 MiB (4%)
Language : Russian
Default : Yes
Forced : No

Audio #2
ID : 3
Format : AC-3
Format/Info : Audio Coding 3
Mode extension : CM (complete main)
Format settings, Endianness : Big
Codec ID : A_AC3
Duration : 1h 56mn
Bit rate mode : Constant
Bit rate : 384 Kbps
Channel(s) : 6 channels
Channel positions : Front: L C R, Side: L R, LFE
Sampling rate : 48.0 KHz
Bit depth : 16 bits
Compression mode : Lossy
Stream size : 319 MiB (8%)
Language : French
Default : No
Forced : No

Menu
00:00:00.000 : en:Глава 1
00:02:55.000 : en:Глава 2
00:07:54.000 : en:Глава 3
00:12:26.000 : en:Глава 4
00:19:15.000 : en:Глава 5
00:24:47.000 : en:Глава 6
00:29:24.000 : en:Глава 7
00:33:06.000 : en:Глава 8
00:38:41.000 : en:Глава 9
00:45:47.000 : en:Глава 10
00:52:36.000 : en:Глава 11
00:59:11.000 : en:Глава 12
01:03:07.000 : en:Глава 13
01:07:44.000 : en:Глава 14
01:14:11.000 : en:Глава 15
01:19:52.000 : en:Глава 16
01:26:02.000 : en:Глава 17
01:32:59.000 : en:Глава 18
01:38:00.000 : en:Глава 19
01:42:51.000 : en:Глава 20
01:48:03.000 : en:Глава 21
Скриншоты

Статистика торрента
Раздают: 122 Качают: 51 Размер: 3.81GB Скачали: 18
Имя файла: 37394_-rutor.org-Kras.torrent
Похожие торренты
Отзывы пользователей
Добавить отзыв