3.23GB / Безумное свидание / Date Night (2010) BDRip 720p от Leonardo and Scarabey | Театральная версия

Категория: фильмы » Комедии
рейтинг из 5
  • Добавил: zlidny
  • Дата: 12/08/14, 10:31:59
  • Просмотры: 265
  • Отзывы: 0
?????
Название игры:
Год выхода игры:
Жанр игры: Криминал, Мелодрамы, Триллеры, Комедии

Страна: США
Год выпуска: 2010
Жанр: триллер, мелодрама, комедия, криминал
Продолжительность: 01:27:48
Перевод: Профессиональный (полное дублирование) Лицензия

Режиссер: Шон Леви / Shawn Levy

Актеры: Стив Карелл, Тина Фей, Тараджи П. Хенсон, Марк Уолберг, Джимми Симпсон, Коммон, Уильям Фихтнер, Джеймс Франко, Мила Кунис, Лейтон Мистер

Описание фильма: Скучную жизнь супругов Фостер должен разнообразить ужин в модном нью-йоркском ресторане. Так и получилось, ведь стоило им представиться чужими именами, чтобы получить столик без очереди и безумные приключения тут же начались. Приняв их за других, в бешеную гонку по городу за семейной четой пустились коррумпированные копы и городские гангстеры.



Файл
Качество видео: BDRip 720p Исходник: Blu-ray
Формат: MKV Видео кодек: MPEG-4 AVC Аудио кодек: AC3
Видео: AVC, 1280x544 (2.35:1) at 23.976 fps, AVC at 4714 kbps avg, 0.282 bit/pixel
Аудио: Russian: 48 kHz; AC3 5.1; 448.00 kbps avg; профессиональный, полное дублирование
Субтитры: Русские, английские
Навигация по главам: Есть

Автор рипа:

Релиз от:

АНОНСЫ МОИХ РАЗДАЧ!


MediaInfo

Date Night.2010.720p.BluRay.x264-LEONARDO_[scarabey.org].mkv
Format : Matroska
Format version : Version 2
File size : 3.23 GiB
Duration : 1h 27mn
Overall bit rate : 5 266 Kbps
Movie name : Release by Leonardo for Scarabey.org
Encoded date : UTC 2014-08-12 01:21:26
Writing application : mkvmerge v5.0.1 ('Es ist Sommer') built on Oct 23 2011 00:46:40
Writing library : libebml v1.2.2 + libmatroska v1.3.0
Attachment : Yes

Video
ID : 1
Format : AVC
Format/Info : Advanced Video Codec
Format profile : High@L4.1
Format settings, CABAC : Yes
Format settings, ReFrames : 8 frames
Codec ID : V_MPEG4/ISO/AVC
Duration : 1h 27mn
Bit rate : 4 714 Kbps
Width : 1 280 pixels
Height : 544 pixels
Display aspect ratio : 2.35:1
Frame rate : 23.976 fps
Color space : YUV
Chroma subsampling : 4:2:0
Bit depth : 8 bits
Scan type : Progressive
Bits/(Pixel*Frame) : 0.282
Stream size : 2.89 GiB (90%)
Writing library : x264 core 125 r2208 d9d2288
Encoding settings : cabac=1 / ref=8 / deblock=1:-3:-3 / analyse=0x3:0x133 / me=umh / subme=11 / psy=1 / psy_rd=1.00:0.00 / mixed_ref=1 / me_range=32 / chroma_me=1 / trellis=2 / 8x8dct=1 / cqm=0 / deadzone=21,11 / fast_pskip=0 / chroma_qp_offset=-2 / threads=12 / lookahead_threads=2 / sliced_threads=0 / nr=0 / decimate=1 / interlaced=0 / bluray_compat=0 / constrained_intra=0 / bframes=8 / b_pyramid=2 / b_adapt=2 / b_bias=0 / direct=1 / weightb=1 / open_gop=0 / weightp=2 / keyint=250 / keyint_min=23 / scenecut=40 / intra_refresh=0 / rc=crf / mbtree=0 / crf=19.0 / qcomp=0.60 / qpmin=0 / qpmax=69 / qpstep=4 / ip_ratio=1.10 / pb_ratio=1.10 / aq=1:1.00
Language : English
Default : Yes
Forced : No

Audio
ID : 2
Format : AC-3
Format/Info : Audio Coding 3
Mode extension : CM (complete main)
Codec ID : A_AC3
Duration : 1h 27mn
Bit rate mode : Constant
Bit rate : 448 Kbps
Channel(s) : 6 channels
Channel positions : Front: L C R, Side: L R, LFE
Sampling rate : 48.0 KHz
Bit depth : 16 bits
Compression mode : Lossy
Stream size : 281 MiB (9%)
Language : Russian
Default : Yes
Forced : Yes

Text #1
ID : 3
Format : UTF-8
Codec ID : S_TEXT/UTF8
Codec ID/Info : UTF-8 Plain Text
Title : Forced
Language : Russian
Default : Yes
Forced : No

Text #2
ID : 4
Format : UTF-8
Codec ID : S_TEXT/UTF8
Codec ID/Info : UTF-8 Plain Text
Title : Full
Language : Russian
Default : No
Forced : No

Text #3
ID : 5
Format : UTF-8
Codec ID : S_TEXT/UTF8
Codec ID/Info : UTF-8 Plain Text
Title : Full
Language : Ukrainian
Default : No
Forced : No

Text #4
ID : 6
Format : UTF-8
Codec ID : S_TEXT/UTF8
Codec ID/Info : UTF-8 Plain Text
Title : PSDH
Language : English
Default : No
Forced : No

Text #5
ID : 7
Format : UTF-8
Codec ID : S_TEXT/UTF8
Codec ID/Info : UTF-8 Plain Text
Title : Forced
Language : English
Default : No
Forced : No

Menu
00:00:00.000 : en:00:00:00.000
00:03:52.023 : en:00:03:52.023
00:07:24.569 : en:00:07:24.569
00:11:02.412 : en:00:11:02.412
00:13:01.656 : en:00:13:01.656
00:17:57.868 : en:00:17:57.868
00:21:51.769 : en:00:21:51.769
00:27:50.878 : en:00:27:50.878
00:30:33.999 : en:00:30:33.999
00:33:02.647 : en:00:33:02.647
00:35:43.600 : en:00:35:43.600
00:36:50.875 : en:00:36:50.875
00:41:10.885 : en:00:41:10.885
00:47:21.297 : en:00:47:21.297
00:55:19.650 : en:00:55:19.650
00:58:30.882 : en:00:58:30.882
01:03:03.571 : en:01:03:03.571
01:04:29.657 : en:01:04:29.657
01:06:37.744 : en:01:06:37.744
01:10:19.757 : en:01:10:19.757
01:15:09.380 : en:01:15:09.380
01:18:04.930 : en:01:18:04.930
01:19:49.410 : en:01:19:49.410
01:21:34.598 : en:01:21:34.598
Полноразмерные скриншоты


Статистика торрента
Раздают: 335 Качают: 162 Размер: 3.23GB Скачали: 16
Имя файла: 36874_-rutor.org-Date.torrent
Похожие торренты
Отзывы пользователей
Добавить отзыв