2.93GB / Ограбление по-женски (1-4 серии из 4) (Ашот Кещян) [2014, приключения, комедия, WEB-DLRip-AVC]

Категория: фильмы » Комедии
рейтинг из 5
  • Добавил: zlidny
  • Дата: 17/10/14, 11:00:22
  • Просмотры: 256
  • Отзывы: 0
?????
Название игры:
Год выхода игры:
Жанр игры: Приключения, Комедии

Формат: WEB-DLRip-AVC, MKV, H.264, AC3
Режиссер: Ашот Кещян
Жанр: приключения, комедия
Продолжительность: 4 x ~ 00:45:00
Год выпуска: 2014
В ролях: Ирма Витовская, Римма Зюбина, Ольга Тумайкина, Николай Боклан, Борис Георгиевский, Михаил Жонин, Сергей Калантай, Олег Савкин
Описание:
Грабить банки – совсем не женское дело. Но если жизнь заставит, то наши женщины справятся и с этим.Нина, Тома и Света – закадычные подруги. Судьба их не слишком баловала. Нина одна растит сына и работает уборщицей в банке. Тома – учительница, вечно влюбляющаяся не в тех мужчин. Света – медицинский работник среднего звена, вынужденная делить с бывшим супругом скромную жилплощадь.Все, что накоплено на черный день, подруги хранят в том самом банке, где работает Нина. И однажды Нина случайно узнает, что руководство украло все деньги вкладчиков. А чтобы замести следы – планирует инсценировку ограбления банка. И подруги, и остальные вкладчики потеряют все деньги… Возмущенные жизненной несправедливостью, подруги решают проникнуть в хранилище банка и забрать свои вклады. И это им удалось! Но теперь у них «на хвосте» и полиция, и бандиты, чьи деньги они случайно прихватили с собой...



Видео: 1024x576 (16:9), 25 fps, AVC (х.264) High@L3.2 ~2126 kbps avg, 0.144 bit/pixel
Аудио: 48 kHz, АС3, 2 ch, Front: L R ~192.00 kbps avg
Тех. данные файлов идентичны.
 

MI
Общее
Полное имя : F:\Ograblenie.po.zhenski.x264.2014.WEB-DLRip.(AVC).ExKinoRay\Ograblenie.po.zhenski.(1.seriya.iz.4).x264.2014.WEB-DLRip.(AVC).ExKinoRay.mkv
Формат : Matroska
Размер файла : 751 Мбайт
Продолжительность : 45 м.
Общий поток : 2318 Кбит/сек
Дата кодирования : UTC 2014-10-15 06:57:56
Программа кодирования : mkvmerge v6.1.0 ('Old Devil') built on Mar 4 2013 09:10:42
Библиотека кодирования : libebml v1.3.0 + libmatroska v1.4.0

Видео
Идентификатор : 1
Формат : AVC
Формат/Информация : Advanced Video Codec
Профиль формата : High@L3.2
Параметр CABAC формата : Да
Параметр ReFrames формата : 8 кадров
Идентификатор кодека : V_MPEG4/ISO/AVC
Продолжительность : 45 м.
Битрейт : 2126 Кбит/сек
Ширина : 1024 пикс.
Высота : 576 пикс.
Соотношение сторон : 16:9
Частота кадров : 25,000 кадр/сек
Цветовое пространство : YUV
Подвыборка цветности : 4:2:0
Битовая глубина : 8 бит
Тип развёртки : Прогрессивная
Бит/(Пиксели*Кадры) : 0.144
Размер потока : 674 Мбайт (90%)
Библиотека кодирования : x264 core 138 r2358 9e941d1
Настройки программы : cabac=1 / ref=8 / deblock=1:-1:-1 / analyse=0x3:0x133 / me=umh / subme=9 / psy=1 / psy_rd=1.00:0.10 / mixed_ref=1 / me_range=24 / chroma_me=1 / trellis=2 / 8x8dct=1 / cqm=0 / deadzone=21,11 / fast_pskip=0 / chroma_qp_offset=-3 / threads=6 / lookahead_threads=1 / sliced_threads=0 / nr=0 / decimate=1 / interlaced=0 / bluray_compat=0 / constrained_intra=0 / bframes=8 / b_pyramid=2 / b_adapt=1 / b_bias=0 / direct=3 / weightb=1 / open_gop=0 / weightp=2 / keyint=250 / keyint_min=25 / scenecut=40 / intra_refresh=0 / rc_lookahead=40 / rc=2pass / mbtree=1 / bitrate=2126 / ratetol=1.0 / qcomp=0.60 / qpmin=0 / qpmax=69 / qpstep=4 / cplxblur=20.0 / qblur=0.5 / ip_ratio=1.40 / aq=1:1.00
Язык : Russian

Аудио
Идентификатор : 2
Формат : AC-3
Формат/Информация : Audio Coding 3
Расширение режима : CM (complete main)
Идентификатор кодека : A_AC3
Продолжительность : 45 м.
Вид битрейта : Постоянный
Битрейт : 192 Кбит/сек
Каналы : 2 канала
Расположение каналов : Front: L R
Частота : 48,0 КГц
Битовая глубина : 16 бит
Метод сжатия : С потерями
Размер потока : 62,2 Мбайт (8%)
Язык : Russian

скриншоты





Статистика торрента
Раздают: 266 Качают: 70 Размер: 2.93GB Скачали: 17
Имя файла: 38583_OgrablenieAVC-t.torrent
Похожие торренты
Отзывы пользователей
Добавить отзыв