2.8GB / Большая афера / The Grand Seduction (Дон МакКеллар) [2013, комедия, BDRip-AVC]

Категория: фильмы » Комедии
рейтинг из 5
  • Добавил: zlidny
  • Дата: 26/09/14, 14:03:19
  • Просмотры: 185
  • Отзывы: 0
?????
Название игры:
Год выхода игры:
Жанр игры: Комедии

Перевод: Профессиональный (многоголосый, закадровый) лицензия, субтитры : русские, английские
Формат: BDRip-AVC, MKV, H.264, AC3
Страна: Канада
Режиссер: Дон МакКеллар
Жанр: комедия
Продолжительность: 01:53:08
Год выпуска: 2013

В ролях: Брендан Глисон, Тейлор Китч, Лиэн Балабан, Гордон Пинсент, Анна Хопкинс, Ронда Роджерс, Джофф Адамс, Джон Бартлетт, Карли Бун, Марк Критч

Описание: Добро пожаловать в рай, где исполняются все желания! Маленький живописный городок у моря. Население: 120 отъявленных лжецов. И им очень нужен хороший доктор.



Видео: 1024x552 (1.85:1), 23.976 fps, AVC (H.264), High@L4.1 ~2648 kbps, 0.195 bit/pixel
Аудио #1: Русский:48 kHz, AC3 Dolby Digital, 3/2 (L,C,R,l,r) + LFE ch, ~448 kbps [Профессиональный (многоголосый, закадровый)]
Аудио #2: Английский: 48 kHz, AC3 Dolby Digital, 3/2 (L,C,R,l,r) + LFE ch, ~448 kbps [Оригинал]
 

Отчет MediaInfo
Format : Matroska
Format version : Version 4 / Version 2
File size : 2.80 GiB
Duration : 1h 53mn
Overall bit rate : 3 543 Kbps
Movie name : Encode by Odessit
Encoded date : UTC 2014-09-25 13:20:00
Writing application : mkvmerge v6.8.0 ('Theme for Great Cities') 64bit built on Mar 2 2014 21:34:26
Writing library : libebml v1.3.0 + libmatroska v1.4.1

Video
ID : 1
Format : AVC
Format/Info : Advanced Video Codec
Format profile : High@L4.1
Format settings, CABAC : Yes
Format settings, ReFrames : 12 frames
Codec ID : V_MPEG4/ISO/AVC
Duration : 1h 53mn
Bit rate : 2 648 Kbps
Width : 1 024 pixels
Height : 552 pixels
Display aspect ratio : 1.855
Frame rate : 23.976 fps
Color space : YUV
Chroma subsampling : 4:2:0
Bit depth : 8 bits
Scan type : Progressive
Bits/(Pixel*Frame) : 0.195
Stream size : 2.04 GiB (73%)
Writing library : x264 core 142 r2409+42 04be48a tMod [8-bit@all X86_64]
Encoding settings : cabac=1 / ref=12 / deblock=1:-3:-3 / analyse=0x3:0x133 / me=tesa / subme=10 / psy=1 / fade_compensate=0.00 / psy_rd=1.00:0.20 / mixed_ref=1 / me_range=32 / chroma_me=1 / trellis=2 / 8x8dct=1 / cqm=0 / deadzone=21,11 / fast_pskip=0 / chroma_qp_offset=-3 / threads=6 / lookahead_threads=1 / sliced_threads=0 / nr=0 / decimate=0 / interlaced=0 / bluray_compat=0 / constrained_intra=0 / fgo=0 / bframes=10 / b_pyramid=2 / b_adapt=2 / b_bias=0 / direct=3 / weightb=1 / open_gop=0 / weightp=2 / keyint=250 / keyint_min=23 / scenecut=40 / intra_refresh=0 / rc=2pass / mbtree=0 / bitrate=2648 / ratetol=1.0 / qcomp=0.70 / qpmin=0:0:0 / qpmax=69:69:69 / qpstep=4 / cplxblur=20.0 / qblur=0.5 / ip_ratio=1.40 / pb_ratio=1.30 / aq=3:0.90 / aq-sensitivity=10.00 / aq-factor=1.00:1.00:1.00 / aq2=0 / aq3=0
Language : English
Color primaries : BT.709
Transfer characteristics : BT.709
Matrix coefficients : BT.709

Audio #1
ID : 2
Format : AC-3
Format/Info : Audio Coding 3
Mode extension : CM (complete main)
Codec ID : A_AC3
Duration : 1h 53mn
Bit rate mode : Constant
Bit rate : 448 Kbps
Channel(s) : 6 channels
Channel positions : Front: L C R, Side: L R, LFE
Sampling rate : 48.0 KHz
Bit depth : 16 bits
Compression mode : Lossy
Stream size : 363 MiB (13%)
Title : лицензия
Language : Russian

Audio #2
ID : 3
Format : AC-3
Format/Info : Audio Coding 3
Mode extension : CM (complete main)
Codec ID : A_AC3
Duration : 1h 53mn
Bit rate mode : Constant
Bit rate : 448 Kbps
Channel(s) : 6 channels
Channel positions : Front: L C R, Side: L R, LFE
Sampling rate : 48.0 KHz
Bit depth : 16 bits
Compression mode : Lossy
Stream size : 363 MiB (13%)
Language : English

Text #1
ID : 4
Format : UTF-8
Codec ID : S_TEXT/UTF8
Codec ID/Info : UTF-8 Plain Text
Language : Russian

Text #2
ID : 5
Format : UTF-8
Codec ID : S_TEXT/UTF8
Codec ID/Info : UTF-8 Plain Text
Language : English

Text #3
ID : 6
Format : UTF-8
Codec ID : S_TEXT/UTF8
Codec ID/Info : UTF-8 Plain Text
Language : English

Menu
00:00:00.000 : :Chapter 01
00:08:31.427 : :Chapter 02
00:15:51.033 : :Chapter 03
00:21:00.634 : :Chapter 04
00:29:02.073 : :Chapter 05
00:36:40.865 : :Chapter 06
00:45:05.703 : :Chapter 07
00:51:12.152 : :Chapter 08
00:58:23.750 : :Chapter 09
01:06:46.585 : :Chapter 10
01:12:34.099 : :Chapter 11
01:20:29.241 : :Chapter 12
01:27:37.168 : :Chapter 13
01:32:48.020 : :Chapter 14
01:40:28.939 : :Chapter 15
01:49:11.044 : :Chapter 16

Статистика торрента
Раздают: 349 Качают: 195 Размер: 2.8GB Скачали: 8
Имя файла: 37959_The_Grand_Seduc.torrent
Похожие торренты
Отзывы пользователей
Добавить отзыв