2.1GB / Чао, Федерико! (4 серии из 4) (Елена Новикова) [2014, комедия, SATRip]

Категория: фильмы » Комедии
рейтинг из 5
  • Добавил: zlidny
  • Дата: 06/09/14, 15:08:20
  • Просмотры: 306
  • Отзывы: 0
?????
Название игры:
Год выхода игры:
Жанр игры: Комедии

Формат: SATRip, AVI, DivX, MP3
Режиссер: Елена Новикова
Жанр: комедия
Продолжительность: 4 x ~ 00:51:04
Год выпуска: 2014
В ролях: Сергей Баталов, Ольга Машная, Галина Сазонова, Виктор Добронравов, Андрей Бурковский, Виктор Логинов, Андрей Заводюк, Антонио Виллани
Описание:
Ворчливый пенсионер Василий Иванов и его жена Галина получают от детей на годовщину свадьбы подарок - путешествие в Италию. Вася уже как год на пенсии, и безделье его очень сильно тяготит, кроме того, у него проблемы с сердцем, так что жена запрещает ему напрягаться, от чего он ворчит еще больше. Тур Ивановы выбирают максимально бюджетный, чтобы не доставлять хлопот детям, и отправляются в путешествие. В аэропорту Вася и Галина знакомятся со своими сверстниками Валерием и Алиной, которые тоже летят в Италию. Но стоит женщинам отвернуться, как заядлый рыбак Вася и ученый-ихтиолог Валера вдрызг ссорятся! Так что начало путешествия у Ивановых не задается. В это время в Москве их "непутевый" зять Игорь расследует дело о мошенничестве. Он возлагает на него большие надежды, думает, что за раскрытие его повысят, и он докажет своей семье (и в первую очередь тестю), что чего-то стоит!..



Видео: 720x400 (16:9), 25 fps, DivX 5 MPEG-4 ~1500 kbps avg, 0.208 bit/pixel
Аудио: 48 kHz, MPEG Layer 3, 2 ch, ~128.00 kbps avg
Тех. данные файлов идентичны.
 

MI
Общее
Полное имя : C:\Users\Admin\Downloads\Chao.Federiko.01.SATRip.avi
Формат : AVI
Формат/Информация : Audio Video Interleave
Размер файла : 513 Мбайт
Продолжительность : 43 м.
Общий поток : 1638 Кбит/сек
Библиотека кодирования : VirtualDub build 35491/release

Видео
Идентификатор : 0
Формат : MPEG-4 Visual
Параметр BVOP формата : 1
Параметр QPel формата : Нет
Параметр GMC формата : Без точки перехода
Параметр матрицы формата : Default (H.263)
Режим смешивания : Сжатый битовый поток
Идентификатор кодека : DX50
Идентификатор кодека/Подсказка : DivX 5
Продолжительность : 43 м.
Битрейт : 1500 Кбит/сек
Ширина : 720 пикселей
Высота : 400 пикселей
Соотношение сторон : 16:9
Частота кадров : 25,000 кадров/сек
Цветовое пространство : YUV
Субдискретизация насыщенности : 4:2:0
Битовая глубина : 8 бит
Тип развёртки : Прогрессивная
Метод сжатия : С потерями
Бит/(Пиксели*Кадры) : 0.208
Размер потока : 470 Мбайт (92%)
Библиотека кодирования : DivX 6.8.5 (UTC 2009-08-20)

Аудио
Идентификатор : 1
Формат : MPEG Audio
Версия формата : Version 1
Профиль формата : Layer 3
Режим : Joint stereo
Расширение режима : MS Stereo
Идентификатор кодека : 55
Идентификатор кодека/Подсказка : MP3
Продолжительность : 43 м.
Вид битрейта : Постоянный
Битрейт : 128 Кбит/сек
Каналы : 2 канала
Частота : 48,0 КГц
Метод сжатия : С потерями
Размер потока : 40,1 Мбайт (8%)
Выравнивание : Разделение по промежуткам
Продолжительность промежутка : 40 мс. (1,00 видеокадр)
Время предзагрузки промежутка : 500 мс.

скриншоты





Статистика торрента
Раздают: 198 Качают: 86 Размер: 2.1GB Скачали: 16
Имя файла: 37421_chao-tfile.ru-.torrent
Похожие торренты
Отзывы пользователей
Добавить отзыв